<?xml version="1.0" standalone="no"?>
<!DOCTYPE svg PUBLIC "-//W3C//DTD SVG 1.1//EN" "http://www.w3.org/Graphics/SVG/1.1/DTD/svg11.dtd" >
<svg xmlns="http://www.w3.org/2000/svg">
<metadata></metadata>
<defs>
<font id="DosisSemiBold" horiz-adv-x="1159" >
<font-face units-per-em="2048" ascent="1638" descent="-410" />
<missing-glyph horiz-adv-x="409" />
<glyph unicode="&#xfb01;" horiz-adv-x="1114" d="M115 70v1050q0 176 130 302t347 126q127 0 231.5 -41t104.5 -98q0 -31 -22.5 -77t-55.5 -46q-16 0 -47 20q-93 58 -215.5 58t-190 -65.5t-67.5 -168.5v-159h229q27 0 43 -23.5t16 -56.5t-16 -56.5t-43 -23.5h-229v-741q0 -31 -33 -50.5t-78 -19.5t-74.5 19.5t-29.5 50.5z M788 72v829q0 31 30 50.5t76 19.5t78 -19.5t32 -50.5v-829q0 -27 -33 -49.5t-77 -22.5t-75 22.5t-31 49.5z" />
<glyph unicode="&#xfb02;" horiz-adv-x="1136" d="M115 70v1050q0 197 147.5 312.5t353.5 115.5q113 0 221.5 -33.5t168.5 -97.5v-1345q0 -27 -33 -49.5t-77 -22.5t-74.5 22.5t-30.5 49.5v1243q-66 55 -181 55t-197.5 -64.5t-82.5 -175.5v-159h229q27 0 43 -23.5t16 -56.5t-16 -56.5t-43 -23.5h-229v-741q0 -31 -33 -50.5 t-78 -19.5t-74.5 19.5t-29.5 50.5z" />
<glyph horiz-adv-x="0" />
<glyph horiz-adv-x="2048" />
<glyph horiz-adv-x="0" />
<glyph horiz-adv-x="0" />
<glyph unicode="&#xd;" horiz-adv-x="681" />
<glyph unicode=" "  horiz-adv-x="409" />
<glyph unicode="&#x09;" horiz-adv-x="409" />
<glyph unicode="&#xa0;" horiz-adv-x="409" />
<glyph unicode="!" horiz-adv-x="430" d="M94 112q0 50 36 85.5t86 35.5t86 -35.5t36 -85.5t-36 -87t-86 -37t-86 37t-36 87zM106 1413q0 47 31 72.5t78 25.5t78 -26.5t31 -71.5q0 -147 -13.5 -481t-13.5 -481q0 -31 -26.5 -48.5t-55.5 -17.5q-84 0 -84 66z" />
<glyph unicode="&#x22;" horiz-adv-x="595" d="M66 1513q0 25 25.5 42.5t58 17.5t60.5 -17.5t28 -42.5l-21 -288q0 -25 -17.5 -43.5t-49.5 -18.5q-63 0 -64 62zM358 1513q0 25 27 42.5t59.5 17.5t59 -17.5t26.5 -42.5l-20 -288q0 -25 -17.5 -43.5t-48.5 -18.5q-66 0 -65 62z" />
<glyph unicode="#" horiz-adv-x="1314" d="M49 555q0 35 17.5 59.5t44.5 24.5h208l48 281h-174q-66 0 -66 79q0 35 17.5 58.5t43.5 23.5h211l56 332q2 20 28.5 33.5t64.5 13.5t66.5 -21.5t28.5 -64.5l-49 -293h237l58 332q2 20 28.5 33.5t63.5 13.5t65.5 -21.5t30.5 -64.5l-51 -293h174q27 0 47.5 -22.5t20.5 -57 t-19.5 -58t-44.5 -23.5h-207l-49 -281h174q27 0 48.5 -23.5t21.5 -58.5t-20.5 -58.5t-45.5 -23.5h-208l-62 -358q-4 -23 -30.5 -38.5t-62.5 -15.5t-66.5 23t-30.5 61l55 328h-236l-61 -356q-4 -23 -30.5 -39.5t-61.5 -16.5t-65.5 23t-30.5 61l51 328h-172q-31 0 -48.5 22.5 t-17.5 57.5zM516 639h236l49 281h-238z" />
<glyph unicode="$" horiz-adv-x="1054" d="M63 246q0 39 29 77.5t60 38.5t70 -36q128 -114 267 -123v481q-215 81 -254.5 118.5t-72.5 76.5q-62 73 -62 206q0 178 112 270.5t277 110.5v60q0 18 17.5 32.5t41.5 14.5t43 -14.5t19 -32.5v-56q125 -4 230.5 -41.5t105.5 -105.5q0 -37 -24.5 -77t-65.5 -40q-16 0 -90 35 t-156 41v-416q82 -31 136.5 -58.5t115.5 -76.5q121 -98 121 -289.5t-100.5 -299t-272.5 -132.5v-69q0 -18 -19.5 -32.5t-43 -14.5t-41 14t-17.5 33v63q-178 2 -302 81t-124 161zM305 1106q0 -80 49 -122t148 -79v373q-197 -25 -197 -172zM598 207q180 33 180 203 q0 90 -47 141t-133 88v-432z" />
<glyph unicode="%" horiz-adv-x="1585" d="M63 942v303q0 252 277 252q125 0 200.5 -60.5t75.5 -191.5v-303q0 -131 -75.5 -191.5t-200.5 -60.5q-277 0 -277 252zM213 942q0 -121 128 -121t128 121v303q0 121 -128 121t-128 -121v-303zM344 -2.5q0 22.5 8 37.5l752 1505q16 37 55 37t65.5 -22.5t26.5 -47t-6 -41.5 l-751 -1499q-18 -39 -61.5 -39t-66 23.5t-22.5 46zM969 246v303q0 252 276 252q125 0 201 -60.5t76 -191.5v-303q0 -131 -76 -191.5t-201 -60.5q-276 0 -276 252zM1118 246q0 -121 128 -121t128 121v303q0 121 -128 121t-128 -121v-303z" />
<glyph unicode="&#x26;" horiz-adv-x="1288" d="M53 424q0 139 76 246.5t188 167.5q-74 84 -112.5 159.5t-38.5 171.5q0 168 116.5 265.5t285.5 97.5t275.5 -76t106.5 -147q0 -39 -31.5 -70t-66.5 -31t-66.5 37t-82 74t-134 37t-139 -52.5t-55.5 -144.5q0 -116 131 -258l434 -469q43 100 53 311q4 37 24.5 54.5t74 17.5 t72 -24.5t18.5 -79.5q0 -223 -109 -416l174 -184q14 -16 14.5 -44t-30.5 -55.5t-65 -27.5t-60 26l-141 148q-164 -178 -400.5 -178t-374 130t-137.5 314zM272 442q0 -117 81 -194.5t237 -77.5t246 121l-396 418q-168 -115 -168 -267z" />
<glyph unicode="'" horiz-adv-x="303" d="M66 1513q0 25 25.5 42.5t58 17.5t60.5 -17.5t28 -42.5l-21 -288q0 -25 -17.5 -43.5t-49.5 -18.5q-63 0 -64 62z" />
<glyph unicode="(" horiz-adv-x="665" d="M109 328v848q0 168 126.5 282.5t288.5 114.5q106 0 107 -94q0 -43 -20.5 -70t-51.5 -27q-106 0 -170.5 -62.5t-64.5 -143.5v-848q0 -98 69.5 -138t165.5 -40q72 0 72 -95.5t-113 -95.5q-170 0 -289.5 95.5t-119.5 273.5z" />
<glyph unicode=")" horiz-adv-x="667" d="M37 53q0 96 69 97q96 0 166 39.5t70 138.5v848q0 82 -64.5 144t-171.5 62q-31 0 -50 27t-19 70q0 94 104 94q162 0 290 -115t128 -282v-848q0 -178 -121 -273.5t-291 -95.5q-63 0 -86.5 24.5t-23.5 69.5z" />
<glyph unicode="*" horiz-adv-x="923" d="M51 1186q0 33 22.5 58.5t46 25.5t34.5 -4l239 -82l-10 241q2 35 24.5 53.5t55.5 18.5t54.5 -18.5t23.5 -53.5l-9 -245l240 86q16 4 23 4q33 0 55 -29t22 -72.5t-51 -56.5l-235 -61l155 -217q12 -14 12.5 -46t-27.5 -54.5t-63.5 -22.5t-54.5 28l-145 217l-148 -219 q-16 -27 -49 -26.5t-63.5 22t-30.5 52t16 51.5l152 206l-240 70q-49 13 -49 74z" />
<glyph unicode="+" horiz-adv-x="886" d="M45 491.5q0 38.5 19.5 65.5t50.5 27h237v235q0 29 28 50.5t65.5 21.5t63.5 -21.5t26 -50.5v-235h235q29 0 50.5 -28t21.5 -65.5t-21.5 -63.5t-50.5 -26h-235v-237q0 -31 -26 -50.5t-64.5 -19.5t-65.5 19.5t-27 50.5v237h-237q-31 0 -50.5 26t-19.5 64.5z" />
<glyph unicode="," horiz-adv-x="378" d="M68 111q0 51 34.5 86.5t84.5 35.5t87 -35.5t37 -77.5t-100 -282q-14 -31 -45 -31t-54.5 15.5t-23.5 37t6 31.5l45 109q-71 31 -71 111z" />
<glyph unicode="-" horiz-adv-x="843" d="M84 491.5q0 38.5 19.5 65.5t50.5 27h532q29 0 51.5 -28t22.5 -65.5t-22.5 -63.5t-51.5 -26h-532q-31 0 -50.5 26t-19.5 64.5z" />
<glyph unicode="." horiz-adv-x="376" d="M68 110.5q0 51.5 34.5 87t85.5 35.5t87 -35.5t36 -85.5t-35.5 -87t-87 -37t-86 35.5t-34.5 87z" />
<glyph unicode="/" horiz-adv-x="985" d="M39 -2.5q0 22.5 6 37.5l754 1505q16 37 55 37t65.5 -22.5t26.5 -48t-8 -40.5l-752 -1499q-18 -39 -60 -39t-64.5 23.5t-22.5 46z" />
<glyph unicode="0" horiz-adv-x="1128" d="M106 444v596q0 236 125 346.5t334 110.5t335 -110.5t126 -346.5v-596q0 -236 -126 -346t-335 -110t-334 110t-125 346zM324 444q0 -264 241 -264q117 0 180.5 65.5t63.5 198.5v596q0 133 -63.5 199t-180.5 66q-242 0 -241 -265v-596zM479 741q0 39 24.5 62.5t63.5 23.5 t62.5 -23.5t23.5 -62.5t-23.5 -63.5t-62.5 -24.5t-63.5 24.5t-24.5 63.5z" />
<glyph unicode="1" horiz-adv-x="546" d="M14 1198q0 43 43 74l213 205q23 23 58 22.5t64.5 -20t29.5 -52.5v-1355q0 -33 -33 -52.5t-77 -19.5t-75.5 19.5t-31.5 52.5v1138l-72 -90q-20 -20 -48 -20t-49.5 27.5t-21.5 70.5z" />
<glyph unicode="2" horiz-adv-x="1013" d="M61 72v198q0 92 69 180.5t169 159.5l197 144q98 72 166.5 157.5t68.5 171.5t-56.5 150.5t-156.5 64.5t-157.5 -51t-57.5 -151q0 -33 -31.5 -57.5t-83.5 -24.5q-98 0 -98 121q0 160 124 261t301 101t305 -113.5t128 -293.5q0 -123 -68.5 -230.5t-166 -182.5t-194.5 -141.5 t-165.5 -134t-68.5 -131.5v-77h602q29 0 50 -28t21 -67t-21.5 -68.5t-49.5 -29.5h-729q-33 0 -65 20.5t-32 51.5z" />
<glyph unicode="3" horiz-adv-x="1042" d="M49 348q0 53 22.5 72.5t83.5 19.5t84 -19.5t23 -62.5q0 -74 62.5 -126t184.5 -52t182.5 60.5t60.5 193.5v39q0 223 -250 223q-70 0 -70 87t70 87q104 0 158.5 47.5t54.5 178.5q0 211 -205 211q-115 0 -164 -48.5t-49 -119.5q0 -88 -102 -88q-70 0 -91.5 20.5t-21.5 77.5 t20.5 112.5t66.5 110.5t135 90t208 35q412 0 412 -364q0 -125 -44 -215.5t-120 -126.5q209 -82 209 -318v-39q0 -231 -129 -338.5t-344 -107.5t-331 110.5t-116 249.5z" />
<glyph unicode="4" horiz-adv-x="987" d="M6 409q0 30 12 52l496 977q31 59 94 59q35 0 72 -24.5t37 -59.5q0 -12 -10 -33l-422 -841h301v282q0 72 108 72q45 0 77 -18.5t32 -53.5v-282h100q35 0 54.5 -31t19.5 -70t-22.5 -70.5t-51.5 -31.5h-100v-264q0 -33 -33 -52.5t-77 -19.5t-75.5 19.5t-31.5 52.5v264h-504 q-33 0 -54.5 21.5t-21.5 51.5z" />
<glyph unicode="5" horiz-adv-x="1017" d="M45 350q0 100 109 100.5t108.5 -85.5t68 -135.5t171.5 -49.5q246 0 246 258v39q0 129 -63.5 193.5t-180.5 64.5h-297q-92 0 -92 84q0 20 4 49l47 557q6 72 49 72h608q33 0 50.5 -28.5t17.5 -67.5t-17.5 -67.5t-50.5 -28.5h-473l-28 -398h182q211 0 336 -103.5t125 -326.5 v-39q0 -231 -126 -340.5t-336 -109.5t-334 105t-124 257z" />
<glyph unicode="6" horiz-adv-x="1097" d="M102 444v596q0 236 128 346.5t342 110.5t332 -109.5t118 -254.5q0 -51 -24.5 -72t-77.5 -21q-113 0 -113 82t-68.5 132.5t-171.5 50.5q-250 0 -250 -265v-258q94 117 287 117q418 0 418 -418v-37q0 -236 -125 -346t-334 -110t-335 110t-126 346zM317 432q0 -264 244 -264 t244 264v35q0 258 -244 258t-244 -240v-53z" />
<glyph unicode="7" horiz-adv-x="991" d="M43 1112v313q0 27 30.5 49.5t65.5 22.5h727q33 0 65 -22.5t32 -49.5v-211q0 -47 -39 -120l-551 -1067q-18 -33 -68.5 -33t-91.5 30.5t-41 64.5t10 52l563 1037v127h-485v-193q0 -31 -33.5 -51.5t-77 -20.5t-75 20.5t-31.5 51.5z" />
<glyph unicode="8" horiz-adv-x="1067" d="M74 410v24q0 297 235 383q-190 74 -190 320q0 186 111.5 273t304 87t304 -87t111.5 -273q0 -248 -192 -320q236 -86 235 -383v-24q0 -217 -125 -319.5t-333.5 -102.5t-334.5 102.5t-126 319.5zM291 432q0 -133 64.5 -198.5t179.5 -65.5q242 0 241 264v37 q0 256 -242.5 256t-242.5 -256v-37zM330 1111q0 -206 204.5 -206t204.5 206t-204.5 206t-204.5 -206z" />
<glyph unicode="9" horiz-adv-x="1097" d="M76 352q0 51 24.5 71.5t77.5 20.5q113 0 113 -81.5t68.5 -132t170.5 -50.5q248 0 248 264v258q-92 -117 -284 -116q-418 0 -418 418v36q0 236 125 346.5t333.5 110.5t334.5 -110.5t126 -346.5v-596q0 -236 -128 -346t-342 -110t-331.5 109.5t-117.5 254.5zM293 1018 q0 -258 243 -258t242 239v54q0 264 -242.5 264t-242.5 -264v-35z" />
<glyph unicode=":" horiz-adv-x="448" d="M102 110.5q0 51.5 35 87t86 35.5t87 -35.5t36 -85.5t-36 -87t-87 -37t-86 35.5t-35 87zM102 741.5q0 51.5 35 87t86 35.5t87 -35.5t36 -86t-36 -87.5t-87 -37t-86 36t-35 87.5z" />
<glyph unicode=";" horiz-adv-x="448" d="M98 111q0 51 35 86.5t85 35.5t87 -35.5t37 -77.5t-100 -282q-14 -31 -45 -31t-54.5 15.5t-23.5 37t6 31.5l45 109q-72 31 -72 111zM106 741.5q0 51.5 35 87t86 35.5t87 -35.5t36 -86t-35.5 -87.5t-87 -37t-86.5 36t-35 87.5z" />
<glyph unicode="&#x3c;" horiz-adv-x="841" d="M43 568q0 52 45 83l539 353q10 8 37.5 8t59.5 -31t32 -71t-31 -60l-430 -283l430 -282q31 -16 31 -58.5t-32 -72t-59.5 -29.5t-37.5 8l-539 352q-45 31 -45 83z" />
<glyph unicode="=" horiz-adv-x="905" d="M119 310q0 40 20.5 66.5t50.5 26.5h523q29 0 51 -27.5t22 -65.5t-22.5 -63.5t-50.5 -25.5h-523q-33 0 -52 24.5t-19 64.5zM119 726q0 40 20.5 66.5t50.5 26.5h523q29 0 51 -27.5t22 -65.5t-22.5 -63.5t-50.5 -25.5h-523q-33 0 -52 24.5t-19 64.5z" />
<glyph unicode="&#x3e;" horiz-adv-x="839" d="M86 225q0 41 29 60l432 282l-432 283q-29 23 -29 61.5t32 69.5t58 31t37 -8l539 -353q45 -31 45 -84t-45 -82l-539 -352q-10 -8 -37 -8t-58.5 29.5t-31.5 70.5z" />
<glyph unicode="?" horiz-adv-x="864" d="M45 1303q0 72 100.5 140t272 68t281.5 -99t110 -253q0 -129 -72 -228q-66 -90 -120 -139t-62 -57q-61 -55 -75.5 -112.5t-14.5 -173.5q0 -63 -86 -64q-43 0 -61.5 20.5t-18.5 73.5q0 233 111 336q12 12 52 45t61.5 54.5t50.5 57.5q55 70 55 167.5t-62.5 152t-173.5 54.5 q-66 0 -111.5 -19.5t-63.5 -44.5q-47 -63 -83.5 -63t-63 22.5t-26.5 61.5zM260 112q0 50 35 85.5t85 35.5t86 -35.5t36 -85.5t-36 -87t-86 -37t-85 37t-35 87z" />
<glyph unicode="@" horiz-adv-x="1492" d="M90 434q0 322 171 522.5t496.5 200.5t499 -176t173.5 -496q0 -195 -70 -320.5t-211 -125.5q-82 0 -139.5 41t-69.5 102q-113 -129 -254 -129q-109 0 -183.5 57.5t-74.5 183.5t105.5 180t302.5 54h75v35q0 154 -180 154q-76 0 -134 -26.5t-73 -26.5t-31 29.5t-16 54.5 q0 49 88 84.5t209 35.5t209 -70.5t88 -197.5v-344q14 -100 90 -100q125 0 125 301q0 569 -518 569q-147 0 -254.5 -47t-165.5 -132q-112 -162 -112 -411q0 -233 99 -385q109 -168 370 -168q102 0 188 28t101.5 28t30.5 -21.5t15 -42.5q0 -53 -119.5 -88t-238.5 -35 t-223.5 42t-187.5 123t-132 214t-49 303zM604 298q0 -122 117 -122q80 0 138.5 52.5t58.5 113.5v84h-62q-252 0 -252 -128z" />
<glyph unicode="A" horiz-adv-x="1150" d="M29 90q0 12 2 19l407 1327q25 74 137 74h1q114 0 139 -74l405 -1327q4 -12 4 -19q0 -37 -44 -63.5t-98 -26.5t-69 45l-84 291h-505l-84 -291q-14 -45 -69.5 -45t-98.5 26.5t-43 63.5zM371 510h409l-205 702z" />
<glyph unicode="B" horiz-adv-x="1132" d="M135 70v1355q0 33 29 52.5t67 19.5h373q188 0 301 -78t113 -276q0 -254 -174 -332q104 -41 157.5 -118t53.5 -224v-39q0 -225 -110.5 -327.5t-297.5 -102.5h-416q-43 0 -69.5 20.5t-26.5 49.5zM350 193h256q231 0 232 253v33q0 131 -58.5 188.5t-173.5 57.5h-256v-532z M350 897h244q207 0 207 211q0 197 -211 197h-240v-408z" />
<glyph unicode="C" horiz-adv-x="1107" d="M121 444v596q0 236 126 346.5t331.5 110.5t333.5 -103.5t128 -267.5q0 -66 -24.5 -89t-83.5 -23q-106 0 -109 71q-12 219 -239 220q-246 0 -246 -265v-596q0 -264 250 -264q149 0 194 84q34 65 41 148q6 71 104 71h3q59 0 84.5 -23.5t25.5 -88.5q0 -170 -129 -276.5 t-335 -106.5t-330.5 110t-124.5 346z" />
<glyph unicode="D" horiz-adv-x="1173" d="M135 70v1357q0 29 27.5 49.5t68.5 20.5h363q209 0 335 -110.5t126 -346.5v-583q0 -236 -126 -346.5t-335 -110.5h-363q-41 0 -68.5 20.5t-27.5 49.5zM352 193h242q244 0 244 264v583q0 264 -244 265h-242v-1112z" />
<glyph unicode="E" horiz-adv-x="1071" d="M135 72v1353q0 33 29 52.5t67 19.5h730q35 0 53 -28.5t18 -67.5t-19.5 -67.5t-51.5 -28.5h-609v-469h316q33 0 52 -26t19 -60.5t-18.5 -60t-52.5 -25.5h-316v-471h609q33 0 52 -29t19 -68t-18.5 -67.5t-52.5 -28.5h-730q-39 0 -67.5 19.5t-28.5 52.5z" />
<glyph unicode="F" horiz-adv-x="1028" d="M135 72v1353q0 33 29 52.5t67 19.5h719q35 0 52.5 -27.5t17.5 -67.5t-18.5 -68.5t-51.5 -28.5h-598v-469h318q33 0 51 -26t18 -60.5t-17 -60t-52 -25.5h-318v-592q0 -35 -31.5 -53.5t-75.5 -18.5t-77 18.5t-33 53.5z" />
<glyph unicode="G" horiz-adv-x="1138" d="M121 444v596q0 236 125 346.5t329.5 110.5t334.5 -103.5t130 -275.5q0 -59 -25.5 -81.5t-82.5 -22.5q-106 0 -109 71q-23 219 -243 220q-242 0 -242 -265v-596q0 -264 242 -264q117 0 180 65.5t63 198.5v168h-207q-33 0 -51 26t-18 60.5t18.5 61t50.5 26.5h353 q33 0 52 -21.5t19 -51.5v-269q0 -236 -126 -346t-334.5 -110t-333.5 110t-125 346z" />
<glyph unicode="H" horiz-adv-x="1214" d="M135 72v1355q0 35 32 52.5t77 17.5t76.5 -17.5t31.5 -52.5v-565h510v565q0 35 32 52.5t77 17.5t76.5 -17.5t31.5 -52.5v-1355q0 -33 -31.5 -52.5t-75.5 -19.5t-77 19.5t-33 52.5v618h-510v-618q0 -33 -31.5 -52.5t-75.5 -19.5t-77 19.5t-33 52.5z" />
<glyph unicode="I" horiz-adv-x="487" d="M135 72v1355q0 35 32 52.5t77 17.5t76.5 -17.5t31.5 -52.5v-1355q0 -33 -31.5 -52.5t-75.5 -19.5t-77 19.5t-33 52.5z" />
<glyph unicode="J" horiz-adv-x="1085" d="M35 379q0 59 26.5 81.5t83.5 22.5q104 0 107 -71q4 -100 63.5 -166t178.5 -66q246 0 245 264v861h-239q-33 0 -52.5 28.5t-19.5 68.5t18.5 67.5t53.5 27.5h360q39 0 67.5 -19.5t28.5 -52.5v-981q0 -236 -124.5 -346t-330.5 -110t-336 107.5t-130 283.5z" />
<glyph unicode="K" horiz-adv-x="1107" d="M135 72v1355q0 35 32 52.5t77 17.5t76.5 -17.5t31.5 -52.5v-622l500 661q20 31 62 31t83 -36t41 -69t-16 -51l-393 -491l467 -711q12 -18 12 -48t-40 -63.5t-89 -33.5t-76 41l-418 633l-133 -168v-428q0 -33 -31.5 -52.5t-75.5 -19.5t-77 19.5t-33 52.5z" />
<glyph unicode="L" horiz-adv-x="976" d="M135 72v1355q0 35 32 52.5t77 17.5t76.5 -17.5t31.5 -52.5v-1234h533q31 0 48 -29t17 -68t-17.5 -67.5t-47.5 -28.5h-654q-39 0 -67.5 19.5t-28.5 52.5z" />
<glyph unicode="M" horiz-adv-x="1406" d="M135 72v1317q0 55 31 81.5t84 26.5t91 -25.5t75 -97.5l286 -543l291 543q37 72 74 97.5t90 25.5q115 0 115 -108v-1317q0 -33 -32 -52.5t-76 -19.5t-76.5 19.5t-32.5 52.5v983l-275 -508q-31 -49 -80 -49t-73 49l-275 520v-995q0 -33 -31.5 -52.5t-75.5 -19.5t-77 19.5 t-33 52.5z" />
<glyph unicode="N" horiz-adv-x="1214" d="M135 72v1353q0 72 109 72q57 0 92 -25.5t72 -97.5l454 -887v940q0 35 32 52.5t77 17.5t76.5 -17.5t31.5 -52.5v-1355q0 -33 -31.5 -52.5t-76.5 -19.5q-86 0 -129 80l-490 932v-940q0 -33 -31.5 -52.5t-75.5 -19.5t-77 19.5t-33 52.5z" />
<glyph unicode="O" d="M121 444v596q0 236 125 346.5t333.5 110.5t334.5 -110.5t126 -346.5v-596q0 -236 -126 -346t-334.5 -110t-333.5 110t-125 346zM338 444q0 -264 242 -264q117 0 180 65.5t63 198.5v596q0 133 -63.5 199t-179.5 66q-242 0 -242 -265v-596z" />
<glyph unicode="P" horiz-adv-x="1116" d="M135 72v1355q0 29 23.5 49.5t60.5 20.5h399q205 0 327 -108.5t122 -341.5v-17q0 -233 -126 -342.5t-335 -109.5h-254v-506q0 -33 -31.5 -52.5t-75.5 -19.5t-77 19.5t-33 52.5zM352 750h254q117 0 180.5 66.5t63.5 199.5v24q0 133 -63.5 199t-180.5 66h-254v-555z" />
<glyph unicode="Q" d="M121 444v596q0 238 125 347.5t333.5 109.5t334.5 -109.5t126 -347.5v-596q0 -215 -104.5 -325.5t-282.5 -126.5v-144q0 -33 -21.5 -52t-51 -19t-51 19.5t-21.5 51.5v144q-178 16 -282.5 125.5t-104.5 326.5zM338 444q0 -217 170 -251v124q0 70 72 70q31 0 52 -17.5 t21 -52.5v-122q170 37 170 249v596q0 133 -63.5 199t-179.5 66q-242 0 -242 -265v-596z" />
<glyph unicode="R" horiz-adv-x="1144" d="M135 72v1355q0 29 20.5 49.5t51.5 20.5h389q471 0 471 -418q0 -174 -78 -273t-211 -132l287 -539q8 -14 8 -31q0 -41 -42 -75.5t-92 -34.5t-83 63l-299 586h-207v-571q0 -33 -31.5 -52.5t-75.5 -19.5t-76 19.5t-32 52.5zM350 817h246q254 0 254 244t-254 244h-246v-488z " />
<glyph unicode="S" horiz-adv-x="1048" d="M59 225q0 39 29 78t59 39t61.5 -25.5t62 -55.5t93 -55.5t160 -25.5t168 55.5t70.5 157.5t-68.5 168t-166 105t-196 84t-167 135t-68.5 212t42 201.5t114 122.5q137 82 317 82q126 0 210.5 -23.5t123.5 -54t39 -69.5t-24.5 -78t-55 -39t-65.5 19q-105 59 -225 59 t-189.5 -46t-69.5 -141q0 -113 133 -178q58 -28 129.5 -56t142 -64.5t129 -85t95.5 -132.5t37 -194q0 -213 -128 -324.5t-327.5 -111.5t-332 78.5t-132.5 162.5z" />
<glyph unicode="T" horiz-adv-x="1050" d="M29 1398q0 40 18.5 69.5t52.5 29.5h850q35 0 53.5 -28.5t18.5 -69.5t-19.5 -71t-52.5 -30h-315v-1226q0 -33 -33 -52.5t-77 -19.5t-75.5 19.5t-31.5 52.5v1226h-318q-33 0 -52 30t-19 70z" />
<glyph unicode="U" horiz-adv-x="1193" d="M129 444v983q0 35 32 52.5t77 17.5t76.5 -17.5t31.5 -52.5v-983q0 -133 65.5 -198.5t184.5 -65.5q252 0 252 264v983q0 35 31.5 52.5t76.5 17.5t77 -17.5t32 -52.5v-983q0 -236 -128 -346t-340 -110t-340 110t-128 346z" />
<glyph unicode="V" horiz-adv-x="1148" d="M27 1407q0 37 43 63.5t98 26.5t70 -45l337 -1167l336 1167q14 45 68.5 45t98.5 -26.5t44 -63.5q0 -6 -4 -18l-405 -1328q-10 -35 -49 -54t-89 -19q-113 0 -137 73l-409 1328q-2 6 -2 18z" />
<glyph unicode="W" horiz-adv-x="1734" d="M29 1409q0 37 43 62.5t99 25.5t69 -45l335 -1167l185 733q14 63 106 63t109 -63l186 -733l334 1167q12 45 68.5 45t99.5 -25.5t43 -62.5q0 -14 -2 -20l-406 -1328q-12 -35 -52 -54t-87 -19t-87 19.5t-48 53.5l-156 619l-155 -619q-8 -35 -48 -54t-89.5 -19t-88 19.5 t-49.5 53.5l-407 1328q-2 6 -2 20z" />
<glyph unicode="X" horiz-adv-x="1091" d="M37 100q0 18 12 43l354 607l-344 602q-16 29 -16 61.5t43 61t93 28.5t83 -61l283 -524l286 524q29 61 80 61t94.5 -28.5t43.5 -61.5t-17 -61l-344 -602l354 -607q14 -29 15 -43q0 -43 -46 -74.5t-92.5 -31.5t-70.5 49l-303 545l-299 -545q-29 -49 -73 -49t-90 31.5 t-46 74.5z" />
<glyph unicode="Y" horiz-adv-x="1142" d="M27 1407q0 37 45 63.5t91 26.5t73 -49l337 -649l336 649q25 49 72 49t91 -26.5t44 -54t-6 -40.5l-424 -764q-4 -12 -4 -22v-518q0 -33 -33 -52.5t-77 -19.5t-75.5 19.5t-31.5 52.5v518q0 4 -6 22l-424 764q-8 17 -8 31z" />
<glyph unicode="Z" horiz-adv-x="1040" d="M37 63q0 39 22 76l635 1166h-555q-33 0 -52 27.5t-19 67.5t18 68.5t53 28.5h764q70 0 70 -61q0 -37 -25 -80l-635 -1163h621q33 0 52.5 -30t19.5 -67t-19.5 -66.5t-52.5 -29.5h-830q-67 0 -67 63z" />
<glyph unicode="[" horiz-adv-x="671" d="M123 29v1472q0 33 29.5 52.5t68.5 19.5h342q33 0 52.5 -28.5t19.5 -67.5t-20.5 -68t-51.5 -29h-223v-1230h223q31 0 51.5 -29t20.5 -68t-19.5 -67.5t-52.5 -28.5h-342q-39 0 -68.5 19.5t-29.5 52.5z" />
<glyph unicode="\" horiz-adv-x="741" d="M43 1477.5q0 21.5 25.5 45t66.5 23.5t60 -45l501 -1403q2 -8 2 -30.5t-23.5 -46t-66.5 -23.5t-59 49l-500 1397q-6 12 -6 33.5z" />
<glyph unicode="]" horiz-adv-x="669" d="M37 53q0 39 19.5 68t49.5 29h224v1230h-224q-31 0 -50 29t-19 68t18.5 67.5t50.5 28.5h345q39 0 67.5 -19.5t28.5 -52.5v-1472q0 -33 -29 -52.5t-67 -19.5h-345q-33 0 -51 28.5t-18 67.5z" />
<glyph unicode="^" horiz-adv-x="571" d="M0 1271q0 36 37 56l213 115q20 10 36.5 10t32.5 -10l213 -113q39 -25 39 -59.5t-15 -56t-38 -21.5l-20 6l-213 115l-213 -115q-10 -6 -26 -6t-31 21.5t-15 57.5z" />
<glyph unicode="_" horiz-adv-x="663" d="M-66 -92q0 39 19.5 65.5t50.5 26.5h655q29 0 51.5 -27.5t22.5 -65.5t-22.5 -63.5t-51.5 -25.5h-655q-31 0 -50.5 25.5t-19.5 64.5z" />
<glyph unicode="`" horiz-adv-x="376" d="M0 1363q0 36 20.5 62.5t38 26.5t33.5 -4l254 -129q31 -16 31 -50t-20.5 -60.5t-42 -26.5t-33.5 6l-248 125q-33 14 -33 50z" />
<glyph unicode="a" horiz-adv-x="942" d="M51 254q0 164 123 228.5t356 64.5h91v37q0 90 -50.5 155.5t-145.5 65.5t-161.5 -31t-73.5 -31q-35 0 -56 34t-21 75q0 53 99 92t210 39q211 0 312.5 -113.5t101.5 -283.5v-514q0 -29 -30 -50.5t-73 -21.5t-71.5 21.5t-28.5 50.5v71q-136 -159 -307 -159h-2 q-119 0 -196 69.5t-77 200.5zM268 278.5q0 -63.5 37 -97.5t105.5 -34t139.5 66t71 139v76h-52q-92 0 -150.5 -8t-104.5 -43t-46 -98.5z" />
<glyph unicode="b" horiz-adv-x="1036" d="M115 72v1407q0 31 28.5 50t75.5 19t79 -19.5t32 -49.5v-652q35 66 104.5 111t159.5 45q152 0 259.5 -119t107.5 -284v-189q0 -160 -109 -283.5t-252 -123.5q-92 0 -170 47t-113 112v-71q0 -27 -29.5 -49.5t-71.5 -22.5t-71.5 22.5t-29.5 49.5zM330 344q0 -45 64.5 -107.5 t146.5 -62.5t143 66.5t61 150.5v189q0 82 -62 147.5t-144 65.5t-145.5 -59.5t-63.5 -153.5v-236z" />
<glyph unicode="c" horiz-adv-x="872" d="M80 391v184q0 182 106.5 295t317.5 113q133 0 223 -46t90 -103q0 -35 -25.5 -70t-60.5 -35q-10 0 -72.5 32t-138.5 32q-225 0 -225 -218v-184q0 -217 227 -217q78 0 140.5 34t74.5 34q41 0 66.5 -33t25.5 -70q0 -57 -94 -106t-229 -49q-213 0 -319.5 111.5t-106.5 295.5z " />
<glyph unicode="d" horiz-adv-x="1038" d="M76 391v189q0 166 107.5 284.5t258.5 118.5q90 0 160 -45t107 -111v652q0 31 30.5 50t77.5 19t77 -19.5t30 -49.5v-1407q0 -27 -31 -49.5t-73 -22.5t-71.5 22.5t-29.5 49.5v71q-33 -66 -112 -112.5t-171 -46.5q-143 0 -251.5 123.5t-108.5 283.5zM291 391 q0 -84 61.5 -150.5t143.5 -66.5t147.5 62.5t65.5 107.5v236q0 94 -63.5 153.5t-146.5 59.5t-145.5 -65.5t-62.5 -147.5v-189z" />
<glyph unicode="e" horiz-adv-x="970" d="M76 391v195q0 162 125 279.5t297 117.5t291.5 -107.5t119.5 -271.5q0 -123 -59 -152q-47 -24 -127 -24h-432v-47q0 -102 73.5 -162.5t175 -60.5t176.5 39t100.5 39t50 -33t24.5 -64q0 -51 -98.5 -103t-241.5 -52q-209 0 -342 112.5t-133 294.5zM291 561h340 q45 0 60.5 12.5t15.5 49.5q0 82 -59.5 139t-146.5 57t-148.5 -54t-61.5 -138v-66z" />
<glyph unicode="f" horiz-adv-x="671" d="M115 70v1087q0 164 106.5 277.5t255.5 113.5h94q39 0 61.5 -27.5t22.5 -64.5t-22.5 -64.5t-61.5 -27.5h-53q-82 0 -135 -53.5t-53 -132.5v-207h266q27 0 43 -23.5t16 -56.5t-16 -56.5t-43 -23.5h-266v-741q0 -31 -33 -50.5t-78 -19.5t-74.5 19.5t-29.5 50.5z" />
<glyph unicode="g" horiz-adv-x="948" d="M39 -171q0 136 158 212q-97 41 -97 134q0 91 103 157q-121 94 -121 258v57q0 147 105.5 241.5t262 94.5t250.5 -70q59 137 134 138q39 0 63.5 -23.5t24.5 -53.5t-35 -48q-66 -29 -103 -82q66 -82 66 -197v-57q0 -147 -108.5 -243.5t-278.5 -96.5q-80 0 -141 24 q-39 -27 -39 -57q0 -41 64.5 -59.5t155.5 -28.5t182 -29.5t155.5 -83t64.5 -168.5q0 -154 -121.5 -231.5t-308 -77.5t-311.5 77t-125 213zM242 -156q0 -74 64.5 -117.5t165.5 -43.5t162.5 43t61.5 103t-28.5 92t-85.5 47q-80 23 -203 30q-137 -52 -137 -154zM291 592 q0 -90 47 -147.5t128 -57.5t128 56.5t47 146.5v57q0 86 -47 142.5t-128 56.5t-128 -56.5t-47 -142.5v-55z" />
<glyph unicode="h" horiz-adv-x="1052" d="M115 72v1407q0 31 29.5 50t75.5 19t78 -19.5t32 -49.5v-652q33 66 101.5 111t160.5 45q145 0 250.5 -119t105.5 -284v-508q0 -33 -32.5 -52.5t-74.5 -19.5t-75 19.5t-33 52.5v508q0 82 -61.5 147.5t-142.5 65.5t-140 -58.5t-59 -154.5v-508q0 -27 -33 -49.5t-77 -22.5 t-74.5 22.5t-30.5 49.5z" />
<glyph unicode="i" horiz-adv-x="440" d="M94 1328q0 46 37 79t88 33t88 -33t37 -79t-37 -80t-88 -34t-88 34t-37 80zM113 72v829q0 31 29.5 50.5t76.5 19.5t78 -19.5t31 -50.5v-829q0 -27 -32 -49.5t-77 -22.5t-75.5 22.5t-30.5 49.5z" />
<glyph unicode="j" horiz-adv-x="440" d="M-78 -371q0 41 24.5 68t59.5 27q66 0 86.5 50t20.5 152v975q0 31 29.5 50.5t76.5 19.5t78 -19.5t31 -50.5v-975q0 -178 -74 -282.5t-219 -104.5q-113 0 -113 90zM94 1328q0 46 37 79t88 33t88 -33t37 -79t-37 -80t-88 -34t-88 34t-37 80z" />
<glyph unicode="k" horiz-adv-x="983" d="M115 72v1407q0 31 28.5 50t75.5 19t79 -19.5t32 -49.5v-912l428 394q18 18 49 18t65.5 -33t34.5 -64.5t-18 -50.5l-264 -235l321 -463q12 -18 12 -46t-40.5 -63.5t-77.5 -35.5t-60 30l-301 445l-149 -135v-256q0 -27 -33 -49.5t-78 -22.5t-74.5 22.5t-29.5 49.5z" />
<glyph unicode="l" horiz-adv-x="477" d="M131 72v1407q0 31 29.5 50t76 19t78 -19.5t31.5 -49.5v-1407q0 -27 -32.5 -49.5t-76.5 -22.5t-75 22.5t-31 49.5z" />
<glyph unicode="m" horiz-adv-x="1626" d="M113 72v829q0 31 29.5 50.5t72.5 19.5t71.5 -19.5t28.5 -50.5v-74q88 156 273 156q90 0 160.5 -56.5t107.5 -148.5q51 100 134 152.5t175 52.5q145 0 251 -109.5t106 -293.5v-508q0 -27 -33 -49.5t-75 -22.5t-74.5 22.5t-32.5 49.5v508q0 100 -57.5 157.5t-133.5 57.5 t-134 -57.5t-58 -153.5v-514q0 -35 -32 -52.5t-75 -17.5t-75.5 17.5t-32.5 52.5v512q0 92 -56.5 151.5t-134.5 59.5t-134 -57.5t-56 -155.5v-508q0 -27 -33 -49.5t-77 -22.5t-74.5 22.5t-30.5 49.5z" />
<glyph unicode="n" horiz-adv-x="1050" d="M113 72v829q0 31 29.5 50.5t73.5 19.5t71.5 -19.5t27.5 -50.5v-74q33 66 106 111t169 45q145 0 250.5 -119t105.5 -284v-508q0 -33 -31.5 -52.5t-74.5 -19.5t-76 19.5t-33 52.5v508q0 82 -61.5 147.5t-142.5 65.5t-140 -58.5t-59 -154.5v-508q0 -27 -33 -49.5t-77 -22.5 t-74.5 22.5t-30.5 49.5z" />
<glyph unicode="o" horiz-adv-x="997" d="M74 391v189q0 162 125 282.5t297 120.5t299 -120t127 -283v-189q0 -160 -128 -283.5t-297 -123.5t-296 122.5t-127 284.5zM289 391q0 -84 61.5 -150.5t146.5 -66.5t147.5 66.5t62.5 150.5v189q0 82 -62.5 147.5t-147.5 65.5t-146.5 -65.5t-61.5 -147.5v-189z" />
<glyph unicode="p" horiz-adv-x="1036" d="M115 -389v1290q0 31 29.5 50.5t72.5 19.5t71.5 -19.5t28.5 -50.5v-74q37 66 110 111t165 45q154 0 261.5 -119t107.5 -284v-189q0 -160 -109 -283.5t-252 -123.5q-88 0 -163 47t-107 112v-532q0 -29 -33 -50.5t-78 -21.5t-74.5 21.5t-29.5 50.5zM330 344 q0 -45 62.5 -107.5t144 -62.5t145 66.5t63.5 150.5v189q0 82 -63.5 147.5t-146.5 65.5t-144 -58.5t-61 -154.5v-236z" />
<glyph unicode="q" horiz-adv-x="1038" d="M76 391v189q0 166 107.5 284.5t260.5 118.5q94 0 166 -45t109 -111v74q0 31 28.5 50.5t71.5 19.5t74 -19.5t31 -50.5v-1290q0 -29 -31 -50.5t-76 -21.5t-76.5 21.5t-31.5 50.5v532q-35 -66 -110 -112.5t-163 -46.5q-143 0 -251.5 123.5t-108.5 283.5zM291 391 q0 -84 63.5 -150.5t145.5 -66.5t145.5 62.5t63.5 107.5v236q0 94 -62.5 153.5t-145.5 59.5t-146.5 -65.5t-63.5 -147.5v-189z" />
<glyph unicode="r" horiz-adv-x="737" d="M113 72v829q0 31 29.5 50.5t72.5 19.5t71.5 -19.5t28.5 -50.5v-90q35 72 106 122t154 50h66q33 0 57.5 -27.5t24.5 -66.5t-24.5 -67.5t-57.5 -28.5h-66q-98 0 -172.5 -84t-74.5 -217v-420q0 -27 -33 -49.5t-78 -22.5t-74.5 22.5t-29.5 49.5z" />
<glyph unicode="s" horiz-adv-x="827" d="M55 147q0 31 21.5 64t46 33t57.5 -24q99 -70 221 -70q174 0 174 110q0 59 -51 93t-123.5 53.5t-144.5 44t-123 84t-51 167t86 194.5t264 87q117 0 212 -36t95 -85q0 -29 -23.5 -66.5t-58.5 -37.5q-12 0 -83.5 29.5t-145.5 29.5t-116 -37t-42 -84t51.5 -75.5t125 -47 t146.5 -45t124 -92t51 -183.5t-94 -193.5t-252.5 -75.5t-262.5 51t-104 112z" />
<glyph unicode="t" horiz-adv-x="673" d="M111 319v1027q0 29 32.5 49t73.5 20t75 -20.5t34 -48.5v-375h249q27 0 43.5 -23.5t16.5 -56.5t-16.5 -56.5t-43.5 -23.5h-249v-492q0 -74 31.5 -104.5t111.5 -30.5h72q43 0 67.5 -26.5t24.5 -65.5t-24.5 -65.5t-67.5 -26.5h-72q-358 0 -358 319z" />
<glyph unicode="u" horiz-adv-x="1054" d="M104 387v512q0 29 33 50.5t76 21.5t74.5 -21.5t31.5 -50.5v-512q0 -82 62.5 -147.5t147.5 -65.5t146.5 64.5t61.5 148.5v514q0 29 32 49.5t77 20.5t74.5 -20.5t29.5 -49.5v-514q0 -162 -125 -282.5t-297 -120.5t-298 120.5t-126 282.5z" />
<glyph unicode="v" horiz-adv-x="940" d="M18 887q0 37 47.5 64.5t96.5 27.5t63 -39l244 -647l244 643q16 43 60 43t95.5 -28.5t51.5 -63.5q0 -14 -9 -35l-344 -829q-18 -43 -98 -43t-98 43l-342 829q-11 21 -11 35z" />
<glyph unicode="w" horiz-adv-x="1400" d="M20 889q0 37 45.5 63.5t94.5 26.5t63 -39l228 -637l174 565q14 47 75.5 47t75.5 -47l172 -569l230 641q12 39 60 39t94 -26.5t46 -65.5q0 -16 -8 -33l-317 -831q-16 -43 -86 -43t-88 40l-179 529l-176 -522q-18 -47 -89 -47t-89 47l-317 827q-9 25 -9 35z" />
<glyph unicode="x" horiz-adv-x="909" d="M41 81.5q0 28.5 14 47.5l254 365l-241 344q-14 19 -14 38q0 35 48 71t89 36t55 -25l209 -327l209 325q16 27 55 27t88 -36t49 -73q0 -16 -14 -36l-244 -346l256 -363q14 -18 14 -46t-47 -63.5t-88 -35.5t-57 24l-221 338l-222 -338q-18 -25 -55 -25q-1 1 -2 1 q-39 0 -87 34.5t-48 63z" />
<glyph unicode="y" horiz-adv-x="935" d="M20 -368.5q0 92.5 60 92.5q92 0 182 88t111 247l-344 795q-9 11 -9 40q0 28 48 60q47 31 96 31t63 -39l258 -665l222 665q18 39 61 39t93 -31.5t50 -74.5q0 -18 -4 -25l-338 -893q-56 -136 -82 -178l-49 -76q-31 -47 -61.5 -70.5t-69.5 -48.5q-74 -49 -180.5 -49 t-106.5 92.5z" />
<glyph unicode="z" horiz-adv-x="870" d="M47 80q0 33 37 84l438 629h-389q-27 0 -47 26.5t-20 63.5t18 62.5t49 25.5h592q31 0 52.5 -19.5t21.5 -59.5t-33 -85l-440 -629h434q29 0 49 -25.5t20 -63.5t-19 -63.5t-50 -25.5h-637q-37 0 -56.5 23.5t-19.5 56.5z" />
<glyph unicode="{" horiz-adv-x="702" d="M51 790q0 38 19.5 57t41.5 22q62 8 62 51q0 18 -18.5 145t-18.5 162q0 135 127 240.5t285 105.5q61 0 90 -27.5t29 -65.5t-19.5 -66t-52.5 -28q-88 0 -165 -52t-77 -136l37 -301q0 -37 -25.5 -69.5t-48.5 -41.5q23 -6 48.5 -37.5t25.5 -70.5l-37 -373q0 -59 46 -97 q76 -63 196 -63q37 0 54.5 -29.5t17.5 -62.5q0 -94 -121 -94q-162 0 -286 92t-124 232q0 39 18.5 196.5t18.5 179t-19.5 35t-42 16.5t-42 22.5t-19.5 57.5z" />
<glyph unicode="|" horiz-adv-x="462" d="M123 29v1474q0 31 30.5 50.5t76.5 19.5t78 -19.5t32 -50.5v-1474q0 -29 -33 -50.5t-78 -21.5t-75.5 21.5t-30.5 50.5z" />
<glyph unicode="}" horiz-adv-x="702" d="M35 53q0 33 17.5 62.5t60 29.5t93 12.5t96.5 50.5t46 97l-37 373q0 39 25.5 70.5t48.5 37.5q-23 8 -48.5 41t-25.5 70l37 301q0 84 -76.5 136t-165.5 52q-33 0 -52 28t-19 66t28.5 65.5t90.5 27.5q158 0 284.5 -105.5t126.5 -240.5q0 -35 -18.5 -162t-18.5 -148.5 t19.5 -33t42 -14.5t42 -22.5t19.5 -57t-19.5 -57t-41.5 -22.5q-62 -8 -62 -55q0 -18 18.5 -175.5t18.5 -196.5q0 -139 -124 -231.5t-285 -92.5q-121 0 -121 94z" />
<glyph unicode="~" horiz-adv-x="835" d="M80 502q0 70 59.5 100.5t117.5 30.5t143 -32t137.5 -32t99.5 26t68.5 26t36 -25t14.5 -45q0 -74 -57.5 -102.5t-120 -28.5t-146.5 31.5t-134 31.5t-98 -27.5t-70 -27.5t-36 25.5t-14 48.5z" />
<glyph unicode="&#xa1;" horiz-adv-x="430" d="M92 1388q0 50 36 86.5t86 36.5t86 -36.5t36 -86.5t-36 -86t-86 -36t-86 36t-36 86zM106 86q0 150 13.5 482.5t13.5 480.5q0 31 25.5 48t58.5 17t57.5 -16.5t24.5 -48.5l25 -963q0 -47 -31 -72.5t-78 -25.5t-78 26.5t-31 71.5z" />
<glyph unicode="&#xa2;" horiz-adv-x="866" d="M55 735v39q0 166 88 275.5t265 130.5v180q0 27 19 45t47 18t48.5 -18.5t20.5 -44.5v-182q109 -10 182.5 -51.5t73.5 -84.5t-25.5 -75.5t-62.5 -32.5q-10 0 -59.5 27.5t-108.5 33.5v-479q57 6 106 36t62 30q41 0 67.5 -32t26.5 -75t-78 -87t-184 -56v-187q0 -25 -20.5 -45 t-48.5 -20t-47 20.5t-19 44.5v187q-176 18 -264.5 127.5t-88.5 275.5zM246 735q0 -182 162 -219v479q-162 -39 -162 -221v-39z" />
<glyph unicode="&#xa3;" horiz-adv-x="1067" d="M45 96q0 39 18.5 68t51.5 29h114l76 557h-129q-29 0 -44 23.5t-15 56t16.5 57t42.5 24.5h154l35 244q27 178 170 298t323 120h62q35 0 55 -28.5t20 -66.5t-20.5 -67t-54.5 -29h-72q-111 0 -182.5 -65.5t-85.5 -161.5l-35 -244h266q27 0 43 -24.5t16 -56.5t-15 -56 t-44 -24h-291l-78 -557h486q33 0 50 -29t17 -68t-17 -67.5t-50 -28.5h-813q-33 0 -51.5 28.5t-18.5 67.5z" />
<glyph unicode="&#xa4;" horiz-adv-x="944" d="M109 668q0 16 12 28l59 58q-70 94 -69.5 212.5t69.5 213.5l-53 51q-12 12 -12 29t15 33t33.5 16t31.5 -11l49 -49q98 86 224 86t228 -80l54 50q10 10 29 10t34.5 -16.5t15.5 -32.5t-12 -29l-55 -53q76 -96 76 -216t-76 -218l55 -54q12 -12 12 -28t-15 -33t-33.5 -17 t-28.5 11l-56 49q-100 -84 -226 -84t-226 88l-58 -53q-10 -10 -28 -10.5t-33.5 16.5t-15.5 33zM238 966q0 -95 69.5 -169t165.5 -74t167 73.5t71 168t-70 168t-167 73.5t-166.5 -72.5t-69.5 -167.5z" />
<glyph unicode="&#xa5;" horiz-adv-x="1107" d="M45 1422.5q0 25.5 42 54t83 28.5t68 -51l313 -596l319 596q27 51 68 51t82 -28.5t41 -53t-6 -37.5l-348 -593h161q29 0 51.5 -24t22.5 -56.5t-22.5 -55t-51.5 -22.5h-211v-139h211q29 0 51.5 -23.5t22.5 -56.5t-22.5 -54.5t-51.5 -21.5h-211v-268q0 -33 -31.5 -52.5 t-74.5 -19.5t-76 19.5t-33 52.5v268h-202q-33 0 -52.5 20.5t-19.5 55.5t19.5 57.5t52.5 22.5h202v139h-202q-33 0 -52.5 20.5t-19.5 55t19.5 58.5t52.5 24h153l-340 593q-8 11 -8 36.5z" />
<glyph unicode="&#xa6;" horiz-adv-x="460" d="M123 29v528q0 31 30.5 51.5t75.5 20.5t77 -20.5t32 -51.5v-528q0 -29 -33 -50.5t-77 -21.5t-74.5 21.5t-30.5 50.5zM123 973v530q0 31 29.5 50.5t75.5 19.5t78 -19.5t32 -50.5v-530q0 -27 -33 -49.5t-77 -22.5t-74.5 22.5t-30.5 49.5z" />
<glyph unicode="&#xa7;" horiz-adv-x="966" d="M88 203q0 88 93 88t93 -64q0 -72 41 -128t143.5 -56t154 49t51.5 130t-57.5 130t-140.5 80t-166 72t-140.5 128t-57.5 220v233q0 119 36 204t96 128q113 80 267 80t247.5 -98.5t93.5 -237.5q0 -90 -84 -90q-94 0 -94 78q0 66 -39 118t-128 52t-141.5 -49t-52.5 -134.5 t59.5 -134.5t144.5 -79.5t170 -71.5t144.5 -128t59.5 -220v-232q0 -215 -118 -312t-291 -97t-278.5 102.5t-105.5 239.5zM285 815q0 -84 49 -139t112 -76q200 -69 254 -125v49q0 84 -49 139.5t-111 76.5q-200 69 -255 124v-49z" />
<glyph unicode="&#xa8;" horiz-adv-x="471" d="M0 1290q0 39 27.5 66.5t66.5 27.5t64.5 -27.5t25.5 -66.5t-26.5 -67.5t-64.5 -28.5t-65.5 28.5t-27.5 67.5zM287 1290q0 39 26.5 66.5t65.5 27.5t65.5 -27.5t26.5 -66.5t-26.5 -67.5t-65.5 -28.5t-65.5 28.5t-26.5 67.5z" />
<glyph unicode="&#xa9;" horiz-adv-x="1437" d="M90 735q0 162 58.5 294t152.5 211t203.5 121t220.5 42t219.5 -42t199.5 -121t147.5 -209t56.5 -292t-58.5 -294t-153 -210.5t-204 -120.5t-220 -42t-219 42t-199.5 120.5t-147.5 208.5t-56.5 292zM203 736q0 -245 140 -398.5t370.5 -153.5t376 155t145.5 399.5 t-140.5 398t-370.5 153.5t-375.5 -154.5t-145.5 -399.5zM487 602v299q0 131 64.5 192.5t170 61.5t172.5 -57.5t67 -151.5q0 -39 -14.5 -52t-49.5 -13q-63 0 -66 43q-6 117 -106 116q-111 0 -111 -139v-299q0 -139 113 -139q70 0 87 45q14 36 17 80q2 43 64 43 q35 0 50.5 -14.5t15.5 -53.5q0 -96 -67 -155.5t-172 -59.5t-170 61.5t-65 192.5z" />
<glyph unicode="&#xaa;" horiz-adv-x="667" d="M59 1075q0 180 314 180h57v23q0 57 -30.5 98t-93 41t-105.5 -20.5t-58.5 -20.5t-30 23.5t-14.5 52.5q0 35 67.5 62.5t139.5 27.5q141 0 208 -75.5t67 -188.5v-332q0 -20 -20.5 -35.5t-50.5 -15.5t-49.5 15.5t-19.5 35.5v43q-76 -84 -161 -98q-18 -4 -74 -2t-101 47 t-45 139zM211 1081q0 -82 82 -82q49 0 93 41t44 90v44h-47q-172 -1 -172 -93z" />
<glyph unicode="&#xab;" horiz-adv-x="952" d="M57 567.5q0 20.5 37 83.5l162 303q16 29 65.5 29t89.5 -35t40 -71q0 -12 -7 -25l-151 -285l151 -284q6 -8 6.5 -34t-39.5 -61.5t-90.5 -35.5t-64.5 30l-162 301q-37 64 -37 84.5zM479 563q0 20 39 88l162 303q12 29 62 29t91 -36t41 -70q0 -12 -6 -25l-151 -285l151 -284 q6 -8 6 -34t-40.5 -61.5t-89 -35.5t-64.5 30l-176 326q-25 35 -25 55z" />
<glyph unicode="&#xac;" horiz-adv-x="1005" d="M78 491.5q0 38.5 19.5 65.5t49.5 27h672q29 0 51.5 -28t22.5 -64v-291q0 -29 -32 -50.5t-77 -21.5t-75.5 21.5t-30.5 50.5v200h-531q-31 0 -50 26t-19 64.5z" />
<glyph unicode="&#xad;" horiz-adv-x="966" d="M84 491.5q0 38.5 19.5 65.5t50.5 27h655q29 0 51.5 -28t22.5 -65.5t-22.5 -63.5t-51.5 -26h-655q-31 0 -50.5 26t-19.5 64.5z" />
<glyph unicode="&#xae;" horiz-adv-x="1437" d="M90 735q0 162 58.5 294t152.5 211t203.5 121t220.5 42t219.5 -42t199.5 -121t147.5 -209t56.5 -292t-58.5 -294t-153 -210.5t-204 -120.5t-220 -42t-219 42t-199.5 120.5t-147.5 208.5t-56.5 292zM203 736q0 -245 140 -398.5t370.5 -153.5t376 155t145.5 399.5 t-140.5 398t-370.5 153.5t-375.5 -154.5t-145.5 -399.5zM510 406v688q0 16 11 28.5t30 12.5h190q233 0 234 -220q0 -170 -135 -210l129 -267q2 -4 2 -21.5t-20.5 -37t-45 -19.5t-43.5 35l-137 289h-94v-278q0 -43 -60.5 -43t-60.5 43zM631 788h110q113 0 113 119t-113 119 h-110v-238z" />
<glyph unicode="&#xaf;" horiz-adv-x="569" d="M0 1341.5q0 32.5 19.5 54t50.5 21.5h428q29 0 50 -22.5t21 -53t-21.5 -51t-49.5 -20.5h-428q-31 0 -50.5 19.5t-19.5 52z" />
<glyph unicode="&#xb0;" horiz-adv-x="833" d="M53 1204.5q0 147.5 107.5 258t254 110.5t256 -108.5t109.5 -258t-109.5 -262.5t-255 -113t-254 113t-108.5 260.5zM180 1203q0 -95 69.5 -168.5t166 -73.5t167 73.5t70.5 167.5t-69.5 168t-166.5 74t-167 -73t-70 -168z" />
<glyph unicode="&#xb1;" horiz-adv-x="960" d="M82 174q0 39 19.5 65.5t50.5 26.5h655q29 0 50.5 -27.5t21.5 -65.5t-21.5 -63.5t-50.5 -25.5h-655q-31 0 -50.5 25.5t-19.5 64.5zM82 742q0 40 19.5 66t50.5 26h237v225q0 27 27.5 49t65.5 22t63.5 -22.5t25.5 -48.5v-225h236q29 0 50.5 -27t21.5 -66t-21.5 -63.5 t-50.5 -24.5h-236v-227q0 -31 -25.5 -50.5t-64.5 -19.5t-65.5 19.5t-26.5 50.5v227h-237q-31 0 -50.5 24.5t-19.5 64.5z" />
<glyph unicode="&#xb2;" horiz-adv-x="649" d="M57 743v107q0 57 60.5 116.5t132.5 101.5t132 96.5t60 98.5t-28.5 71.5t-85.5 27.5q-109 0 -109 -92q0 -20 -22.5 -38t-57.5 -18q-66 0 -65.5 85t75 141.5t180.5 56.5t184.5 -61.5t78.5 -150.5t-59.5 -157.5t-130.5 -108.5q-191 -107 -191 -163v-29h336q18 0 32.5 -19.5 t14.5 -45t-14.5 -46t-32.5 -20.5h-424q-23 0 -44.5 13.5t-21.5 33.5z" />
<glyph unicode="&#xb3;" horiz-adv-x="663" d="M49 891q0 33 15.5 45t57.5 12t57.5 -12t15.5 -39q0 -76 129 -76q70 0 101.5 26.5t31.5 86.5v20q0 100 -135 101q-47 0 -47.5 57t47.5 59q55 2 83.5 22.5t28.5 82.5q0 94 -109.5 94t-109.5 -72q0 -55 -70 -55q-49 0 -63 12.5t-14 49.5q0 74 61 133t197 59q250 0 249 -197 q0 -139 -94 -182q123 -43 123 -164v-20q0 -127 -77.5 -185.5t-208 -58.5t-200 61.5t-69.5 139.5z" />
<glyph unicode="&#xb4;" horiz-adv-x="376" d="M0 1269q0 34 31 50l254 129q16 4 33.5 4t38 -26.5t20.5 -62.5t-33 -50l-248 -125q-12 -6 -32.5 -6t-42 26.5t-21.5 60.5z" />
<glyph unicode="&#xb5;" horiz-adv-x="1040" d="M127 -389v1288q0 29 33 50.5t76 21.5t74.5 -21.5t31.5 -50.5v-532q0 -66 65.5 -129.5t145.5 -63.5t140.5 65.5t60.5 147.5v512q0 31 32.5 51.5t76.5 20.5t75 -20.5t31 -51.5v-512q0 -164 -123 -283.5t-295 -119.5q-137 0 -232 98v-471q0 -29 -25.5 -50.5t-65.5 -21.5 t-70.5 21.5t-30.5 50.5z" />
<glyph unicode="&#xb6;" horiz-adv-x="1107" d="M51 1051v24q0 219 109.5 320.5t292.5 101.5h446q29 0 50.5 -19.5t21.5 -52.5v-1355q0 -35 -21.5 -52.5t-51.5 -17.5t-51.5 17.5t-21.5 52.5v1319h-166v-1317q0 -33 -21.5 -52.5t-51 -19.5t-51 19.5t-21.5 52.5v555h-61q-182 0 -292 102.5t-110 321.5z" />
<glyph unicode="&#xb7;" horiz-adv-x="403" d="M74 614.5q0 47.5 36.5 81t90 33.5t91.5 -33.5t38 -81t-38 -82t-91 -34.5t-90 34.5t-37 82z" />
<glyph unicode="&#xb8;" horiz-adv-x="370" d="M0 -381q0 16 11.5 41t29.5 25q4 0 41 -14.5t76 -14.5q102 0 102 74q0 68 -110 77l-99 11l53 200h105l-37 -131q98 -2 148.5 -46t50.5 -108.5t-50.5 -117.5t-152.5 -53q-57 0 -112.5 15t-55.5 42z" />
<glyph unicode="&#xb9;" horiz-adv-x="376" d="M23 1346q0 30 26 47l139 96q14 10 36 10t42.5 -13t20.5 -34v-709q0 -47 -75 -47t-75 47v578l-39 -31q-14 -8 -30 -8t-30.5 17t-14.5 47z" />
<glyph unicode="&#xba;" horiz-adv-x="694" d="M66 1153v121q0 109 81.5 188.5t197.5 79.5t200 -79t84 -189v-121q0 -106 -85 -187t-198 -81t-196.5 81t-83.5 187zM215 1153q0 -53 39 -94t92 -41t92 41t39 94v121q0 51 -39 92t-92 41t-92 -41t-39 -92v-121z" />
<glyph unicode="&#xbb;" horiz-adv-x="952" d="M78 260q0 14 6 23l152 284l-152 285q-6 12 -6 25q0 37 40 71.5t89 34.5t65 -29l162 -303q37 -63 37 -83.5t-37 -84.5l-162 -301q-14 -31 -64 -30.5t-90 36t-40 72.5zM500 260q0 14 6 23l153 284l-153 285q-6 12 -6 25q0 35 41 70.5t90 35.5t65 -29l162 -303 q37 -70 37 -84q0 -19 -18 -55l-19 -29l-162 -301q-18 -31 -66 -30.5t-89 36t-41 72.5z" />
<glyph unicode="&#xbc;" horiz-adv-x="1312" d="M55 1346q0 30 27 47l139 96q14 10 36 10t42 -13t20 -34v-709q0 -47 -74.5 -47t-74.5 47v578l-39 -31q-14 -8 -30.5 -8t-31 17t-14.5 47zM152 -2.5q0 22.5 8 37.5l751 1505q16 37 55.5 37t66 -22.5t26.5 -47t-6 -41.5l-752 -1499q-18 -39 -61.5 -39t-65.5 23.5t-22 46z M678 225q0 14 8 29l285 508q20 39 53 39t58.5 -16.5t25.5 -34t-6 -25.5l-234 -414h150v107q0 47 75 47t74 -47v-107h56q47 0 47 -69q0 -25 -14.5 -46.5t-32.5 -21.5h-56v-127q0 -47 -74.5 -47t-74.5 47v127h-289q-51 0 -51 51z" />
<glyph unicode="&#xbd;" horiz-adv-x="1306" d="M49 1346q0 30 27 47l139 96q14 10 36 10t42 -13t20 -34v-709q0 -47 -74.5 -47t-74.5 47v578l-39 -31q-14 -8 -30.5 -8t-31 17t-14.5 47zM113 -2.5q0 22.5 8 37.5l751 1505q16 37 55.5 37t66 -22.5t26.5 -47t-6 -41.5l-752 -1499q-20 -39 -62 -39t-64.5 23.5t-22.5 46z M713 47v107q0 57 60.5 116.5t132 101.5t132 96t60.5 98t-29 72t-86 28q-109 0 -109 -93q0 -20 -22.5 -37.5t-56.5 -17.5q-66 0 -66 85t75 141.5t180.5 56.5t184 -61.5t78.5 -150.5t-59.5 -158t-131.5 -109q-190 -105 -190 -162v-29h336q18 0 32.5 -19.5t14.5 -45t-14 -46 t-33 -20.5h-424q-23 0 -44 13.5t-21 33.5z" />
<glyph unicode="&#xbe;" horiz-adv-x="1585" d="M59 891q0 33 15.5 45t57.5 12t57.5 -12t15.5 -39q0 -76 129 -76q70 0 101.5 26.5t31.5 86.5v20q0 100 -135 101q-47 0 -47 57t47 59q55 2 83.5 22.5t28.5 82.5q0 94 -109.5 94t-109.5 -72q0 -55 -69 -55q-49 0 -63.5 12.5t-14.5 49.5q0 74 61.5 133t196.5 59 q250 0 250 -197q0 -139 -94 -182q123 -43 122 -164v-20q0 -127 -77.5 -185.5t-207.5 -58.5t-200 61.5t-70 139.5zM412 -2.5q0 22.5 8 37.5l751 1505q16 37 55.5 37t66 -22.5t26.5 -47t-6 -41.5l-752 -1499q-20 -39 -62 -39t-64.5 23.5t-22.5 46zM950 225q0 14 8 29l285 508 q20 39 53.5 39t58.5 -16.5t25 -34t-6 -25.5l-233 -414h149v107q0 47 75 47t75 -47v-107h55q47 0 47 -69q0 -25 -14.5 -46.5t-32.5 -21.5h-55v-127q0 -47 -75 -47t-75 47v127h-289q-51 0 -51 51z" />
<glyph unicode="&#xbf;" horiz-adv-x="862" d="M55 327.5q0 141.5 69 236t123 143.5t62 57q61 55 75.5 112.5t14.5 174.5q0 63 84 63q43 0 61.5 -20.5t18.5 -73.5q0 -139 -29.5 -212t-80.5 -124q-14 -14 -63.5 -57t-76 -72t-52 -82t-25.5 -113q0 -98 62 -152t173 -54q66 0 111 19.5t64 44.5q47 63 82.5 63t62 -22.5 t26.5 -61.5q0 -74 -99.5 -141.5t-271 -67.5t-281.5 99t-110 240.5zM360 1388q0 50 36 86.5t86 36.5t86 -36.5t36 -86.5t-36 -86t-86 -36t-86 36t-36 86z" />
<glyph unicode="&#xc0;" horiz-adv-x="1150" d="M29 90q0 12 2 19l407 1327q25 74 138.5 73.5t138.5 -73.5l405 -1327q4 -12 4 -19q0 -37 -44 -63.5t-98 -26.5t-69 45l-84 291h-505l-84 -291q-14 -45 -69.5 -45t-98.5 26.5t-43 63.5zM365 1869q0 36 20.5 62.5t37.5 26.5t34 -4l254 -129q31 -16 30.5 -50t-21 -60.5 t-41.5 -26.5t-34 6l-248 125q-32 14 -32 50zM371 510h409l-205 702z" />
<glyph unicode="&#xc1;" horiz-adv-x="1150" d="M29 90q0 12 2 19l407 1327q25 74 138.5 73.5t138.5 -73.5l405 -1327q4 -12 4 -19q0 -37 -44 -63.5t-98 -26.5t-69 45l-84 291h-505l-84 -291q-14 -45 -69.5 -45t-98.5 26.5t-43 63.5zM371 510h409l-205 702zM430 1775q0 34 31 50l254 129q16 4 33.5 4t38 -26.5 t20.5 -62.5t-33 -50l-248 -125q-12 -6 -32.5 -6t-42 26.5t-21.5 60.5z" />
<glyph unicode="&#xc2;" horiz-adv-x="1150" d="M29 90q0 12 2 19l407 1327q25 74 138.5 73.5t138.5 -73.5l405 -1327q4 -12 4 -19q0 -37 -44 -63.5t-98 -26.5t-69 45l-84 291h-505l-84 -291q-14 -45 -69.5 -45t-98.5 26.5t-43 63.5zM289 1776q0 36 37 57l213 115q20 10 36 10t33 -10l213 -113q39 -25 39 -60t-15.5 -56 t-37.5 -21l-21 6l-213 115l-213 -115q-8 -6 -24.5 -6t-31.5 21t-15 57zM371 510h409l-205 702z" />
<glyph unicode="&#xc3;" horiz-adv-x="1150" d="M29 90q0 12 2 19l407 1327q25 74 138.5 73.5t138.5 -73.5l405 -1327q4 -12 4 -19q0 -37 -44 -63.5t-98 -26.5t-69 45l-84 291h-505l-84 -291q-14 -45 -69.5 -45t-98.5 26.5t-43 63.5zM238 1808q0 70 59 100.5t117.5 30.5t143.5 -31.5t137 -31.5t99.5 25.5t69 25.5 t35.5 -24.5t14 -44.5q0 -74 -57 -103t-120 -29t-146.5 32t-133.5 32t-98.5 -27.5t-70 -27.5t-35.5 25t-14 48zM371 510h409l-205 702z" />
<glyph unicode="&#xc4;" horiz-adv-x="1150" d="M29 90q0 12 2 19l407 1327q25 74 138.5 73.5t138.5 -73.5l405 -1327q4 -12 4 -19q0 -37 -44 -63.5t-98 -26.5t-69 45l-84 291h-505l-84 -291q-14 -45 -69.5 -45t-98.5 26.5t-43 63.5zM340 1796q0 39 27.5 66.5t66.5 27.5t64.5 -27.5t25.5 -66.5t-26.5 -67.5t-64.5 -28.5 t-65.5 28.5t-27.5 67.5zM371 510h409l-205 702zM627 1796q0 39 26.5 66.5t65.5 27.5t65.5 -27.5t26.5 -66.5t-26.5 -67.5t-65.5 -28.5t-65.5 28.5t-26.5 67.5z" />
<glyph unicode="&#xc5;" horiz-adv-x="1150" d="M29 90q0 12 2 19l407 1327q25 74 138.5 73.5t138.5 -73.5l405 -1327q4 -12 4 -19q0 -37 -44 -63.5t-98 -26.5t-69 45l-84 291h-505l-84 -291q-14 -45 -69.5 -45t-98.5 26.5t-43 63.5zM371 510h409l-205 702zM379 1881q0 79 57.5 139.5t136 60.5t139 -60.5t60.5 -139.5 t-60.5 -140.5t-139.5 -61.5t-136 61.5t-57 140.5zM469 1879q0 -40 31.5 -75t73.5 -35t73 34t31 75t-31 72.5t-73 31.5t-73.5 -31.5t-31.5 -71.5z" />
<glyph unicode="&#xc6;" horiz-adv-x="1558" d="M129 82v958q0 236 124 346.5t327 110.5h866q35 0 53.5 -28.5t18.5 -67.5t-19.5 -67.5t-52.5 -28.5h-471v-469h264q33 0 52.5 -26t19.5 -60.5t-18.5 -60t-53.5 -25.5h-264v-471h471q33 0 52.5 -29t19.5 -68t-18.5 -67.5t-53.5 -28.5h-592q-39 0 -67.5 19.5t-28.5 52.5v592 h-424v-582q0 -41 -21.5 -61.5t-87.5 -20.5q-96 0 -96 82zM334 836h424v469h-178q-246 0 -246 -265v-204z" />
<glyph unicode="&#xc7;" horiz-adv-x="1105" d="M119 444v596q0 236 126 346.5t331.5 110.5t333.5 -103.5t128 -267.5q0 -66 -24.5 -89t-83.5 -23q-106 0 -109 71q-12 219 -239 220q-246 0 -246 -265v-596q0 -264 250 -264q149 0 194 84q34 65 41 148q6 72 107 71q59 0 84.5 -23.5t25.5 -88.5q0 -154 -106.5 -257.5 t-286.5 -121.5l-29 -105q98 -2 148.5 -46t50.5 -108.5t-50 -117.5t-153 -53q-57 0 -112.5 15t-55.5 42q0 16 11.5 41t29.5 25q4 0 41 -14.5t76 -14.5q102 0 103 74q0 68 -111 77l-98 11l45 172q-190 8 -306 118.5t-116 335.5z" />
<glyph unicode="&#xc8;" horiz-adv-x="1071" d="M135 72v1353q0 33 29 52.5t67 19.5h730q35 0 53 -28.5t18 -67.5t-19.5 -67.5t-51.5 -28.5h-609v-469h316q33 0 52 -26t19 -60.5t-18.5 -60t-52.5 -25.5h-316v-471h609q33 0 52 -29t19 -68t-18.5 -67.5t-52.5 -28.5h-730q-39 0 -67.5 19.5t-28.5 52.5zM387 1869 q0 36 20.5 62.5t38 26.5t33.5 -4l254 -129q31 -16 31 -50t-20.5 -60.5t-42 -26.5t-33.5 6l-248 125q-33 14 -33 50z" />
<glyph unicode="&#xc9;" horiz-adv-x="1071" d="M135 72v1353q0 33 29 52.5t67 19.5h730q35 0 53 -28.5t18 -67.5t-19.5 -67.5t-51.5 -28.5h-609v-469h316q33 0 52 -26t19 -60.5t-18.5 -60t-52.5 -25.5h-316v-471h609q33 0 52 -29t19 -68t-18.5 -67.5t-52.5 -28.5h-730q-39 0 -67.5 19.5t-28.5 52.5zM424 1775 q0 34 31 50l254 129q16 4 33.5 4t38 -26.5t20.5 -62.5t-33 -50l-248 -125q-12 -6 -32.5 -6t-42 26.5t-21.5 60.5z" />
<glyph unicode="&#xca;" horiz-adv-x="1071" d="M135 72v1353q0 33 29 52.5t67 19.5h730q35 0 53 -28.5t18 -67.5t-19.5 -67.5t-51.5 -28.5h-609v-469h316q33 0 52 -26t19 -60.5t-18.5 -60t-52.5 -25.5h-316v-471h609q33 0 52 -29t19 -68t-18.5 -67.5t-52.5 -28.5h-730q-39 0 -67.5 19.5t-28.5 52.5zM309 1776 q0 36 37 57l213 115q20 10 36.5 10t33.5 -10l213 -113q39 -25 39 -60t-15.5 -56t-38.5 -21l-20 6l-213 115l-213 -115q-8 -6 -25 -6t-32 21t-15 57z" />
<glyph unicode="&#xcb;" horiz-adv-x="1071" d="M135 72v1353q0 33 29 52.5t67 19.5h730q35 0 53 -28.5t18 -67.5t-19.5 -67.5t-51.5 -28.5h-609v-469h316q33 0 52 -26t19 -60.5t-18.5 -60t-52.5 -25.5h-316v-471h609q33 0 52 -29t19 -68t-18.5 -67.5t-52.5 -28.5h-730q-39 0 -67.5 19.5t-28.5 52.5zM350 1796 q0 39 28 66.5t66.5 27.5t64.5 -27.5t26 -66.5t-27 -67.5t-65 -28.5t-65.5 28.5t-27.5 67.5zM637 1796q0 39 26.5 66.5t65.5 27.5t65.5 -27.5t26.5 -66.5t-26.5 -67.5t-65.5 -28.5t-65.5 28.5t-26.5 67.5z" />
<glyph unicode="&#xcc;" horiz-adv-x="487" d="M45 1869q0 36 20.5 62.5t38 26.5t33.5 -4l254 -129q31 -16 31 -50t-20.5 -60.5t-42 -26.5t-33.5 6l-248 125q-33 14 -33 50zM135 72v1355q0 35 32 52.5t77 17.5t76.5 -17.5t31.5 -52.5v-1355q0 -33 -31.5 -52.5t-75.5 -19.5t-77 19.5t-33 52.5z" />
<glyph unicode="&#xcd;" horiz-adv-x="487" d="M66 1775q0 34 30 50l254 129q16 4 34 4t38 -26.5t20 -62.5t-32 -50l-248 -125q-12 -6 -33 -6t-42 26.5t-21 60.5zM135 72v1355q0 35 32 52.5t77 17.5t76.5 -17.5t31.5 -52.5v-1355q0 -33 -31.5 -52.5t-75.5 -19.5t-77 19.5t-33 52.5z" />
<glyph unicode="&#xce;" horiz-adv-x="487" d="M-39 1776q0 36 37 57l213 115q20 10 36.5 10t33.5 -10l213 -113q39 -25 38.5 -60t-15.5 -56t-38 -21l-20 6l-213 115l-213 -115q-8 -6 -25 -6t-32 21t-15 57zM135 72v1355q0 35 32 52.5t77 17.5t76.5 -17.5t31.5 -52.5v-1355q0 -33 -31.5 -52.5t-75.5 -19.5t-77 19.5 t-33 52.5z" />
<glyph unicode="&#xcf;" horiz-adv-x="487" d="M10 1796q0 39 28 66.5t66.5 27.5t64.5 -27.5t26 -66.5t-27 -67.5t-65 -28.5t-65.5 28.5t-27.5 67.5zM135 72v1355q0 35 32 52.5t77 17.5t76.5 -17.5t31.5 -52.5v-1355q0 -33 -31.5 -52.5t-75.5 -19.5t-77 19.5t-33 52.5zM297 1796q0 39 26.5 66.5t65.5 27.5t65.5 -27.5 t26.5 -66.5t-26.5 -67.5t-65.5 -28.5t-65.5 28.5t-26.5 67.5z" />
<glyph unicode="&#xd0;" horiz-adv-x="1189" d="M-8 784.5q0 32.5 16.5 56t42.5 23.5h101v563q0 29 27.5 49.5t68.5 20.5h362q209 0 335 -110.5t126 -346.5v-583q0 -236 -126 -346.5t-335 -110.5h-362q-41 0 -68.5 20.5t-27.5 49.5v635h-101q-27 0 -43 23.5t-16 56zM369 193h241q244 0 244 264v583q0 264 -244 265h-241 v-441h186q29 0 45 -23.5t16 -56t-16 -56t-45 -23.5h-186v-512z" />
<glyph unicode="&#xd1;" horiz-adv-x="1214" d="M135 72v1353q0 72 109 72q57 0 92 -25.5t72 -97.5l454 -887v940q0 35 32 52.5t77 17.5t76.5 -17.5t31.5 -52.5v-1355q0 -33 -31.5 -52.5t-76.5 -19.5q-86 0 -129 80l-490 932v-940q0 -33 -31.5 -52.5t-75.5 -19.5t-77 19.5t-33 52.5zM258 1808q0 70 59.5 100.5 t117.5 30.5t143.5 -31.5t137.5 -31.5t99 25.5t69 25.5t36 -24.5t14 -44.5q0 -74 -57.5 -103t-120 -29t-146.5 32t-134 32t-98 -27.5t-70 -27.5t-36 25t-14 48z" />
<glyph unicode="&#xd2;" d="M121 444v596q0 236 125 346.5t333.5 110.5t334.5 -110.5t126 -346.5v-596q0 -236 -126 -346t-334.5 -110t-333.5 110t-125 346zM338 444q0 -264 242 -264q117 0 180 65.5t63 198.5v596q0 133 -63.5 199t-179.5 66q-242 0 -242 -265v-596zM373 1869q0 36 20.5 62.5 t37.5 26.5t34 -4l254 -129q31 -16 31 -50t-20.5 -60.5t-42 -26.5t-34.5 6l-247 125q-33 14 -33 50z" />
<glyph unicode="&#xd3;" d="M121 444v596q0 236 125 346.5t333.5 110.5t334.5 -110.5t126 -346.5v-596q0 -236 -126 -346t-334.5 -110t-333.5 110t-125 346zM338 444q0 -264 242 -264q117 0 180 65.5t63 198.5v596q0 133 -63.5 199t-179.5 66q-242 0 -242 -265v-596zM444 1775q0 34 31 50l254 129 q16 4 34 4t38 -26.5t20 -62.5t-33 -50l-247 -125q-12 -6 -33 -6t-42.5 26.5t-21.5 60.5z" />
<glyph unicode="&#xd4;" d="M121 444v596q0 236 125 346.5t333.5 110.5t334.5 -110.5t126 -346.5v-596q0 -236 -126 -346t-334.5 -110t-333.5 110t-125 346zM293 1776q0 36 37 57l213 115q20 10 36.5 10t32.5 -10l213 -113q39 -25 39 -60t-15 -56t-38 -21l-20 6l-213 115l-213 -115q-8 -6 -25 -6 t-32 21t-15 57zM338 444q0 -264 242 -264q117 0 180 65.5t63 198.5v596q0 133 -63.5 199t-179.5 66q-242 0 -242 -265v-596z" />
<glyph unicode="&#xd5;" d="M121 444v596q0 236 125 346.5t333.5 110.5t334.5 -110.5t126 -346.5v-596q0 -236 -126 -346t-334.5 -110t-333.5 110t-125 346zM242 1808q0 70 59 100.5t117.5 30.5t143.5 -31.5t137 -31.5t99.5 25.5t69 25.5t36 -24.5t14.5 -44.5q0 -74 -57.5 -103t-120.5 -29t-146.5 32 t-133.5 32t-98.5 -27.5t-70 -27.5t-35.5 25t-14 48zM338 444q0 -264 242 -264q117 0 180 65.5t63 198.5v596q0 133 -63.5 199t-179.5 66q-242 0 -242 -265v-596z" />
<glyph unicode="&#xd6;" d="M121 444v596q0 236 125 346.5t333.5 110.5t334.5 -110.5t126 -346.5v-596q0 -236 -126 -346t-334.5 -110t-333.5 110t-125 346zM338 444q0 -264 242 -264q117 0 180 65.5t63 198.5v596q0 133 -63.5 199t-179.5 66q-242 0 -242 -265v-596zM346 1796q0 39 27.5 66.5 t66.5 27.5t64.5 -27.5t25.5 -66.5t-26.5 -67.5t-64.5 -28.5t-65.5 28.5t-27.5 67.5zM633 1796q0 39 26.5 66.5t65.5 27.5t65.5 -27.5t26.5 -66.5t-26.5 -67.5t-65.5 -28.5t-65.5 28.5t-26.5 67.5z" />
<glyph unicode="&#xd7;" horiz-adv-x="825" d="M98 343q0 30 19 52l180 168l-178 166q-18 18 -18.5 51t30.5 65t64 32t51 -19l166 -168l168 168q18 18 51 18.5t63.5 -31.5t30.5 -64t-16 -52l-181 -166l181 -168q20 -20 20 -51t-32.5 -63.5t-64.5 -32.5t-50 18l-170 170l-168 -170q-18 -18 -49 -18t-64 32.5t-33 62.5z " />
<glyph unicode="&#xd8;" d="M121 444v596q0 236 125 346.5t334 110.5q154 0 260 -59l51 102q16 37 55 37t65.5 -22.5t26.5 -48t-8 -40.5l-67 -135q78 -113 77 -291v-596q0 -236 -126 -346t-334 -110q-154 0 -263 57l-38 -78q-20 -39 -61.5 -39t-64 23.5t-22.5 46t6 37.5l60 119q-76 114 -76 290z M338 434l407 817q-63 53 -165 54q-242 0 -242 -265v-606zM412 233q59 -53 172 -53t176 65.5t63 198.5v609z" />
<glyph unicode="&#xd9;" horiz-adv-x="1193" d="M129 444v983q0 35 32 52.5t77 17.5t76.5 -17.5t31.5 -52.5v-983q0 -133 65.5 -198.5t184.5 -65.5q252 0 252 264v983q0 35 31.5 52.5t76.5 17.5t77 -17.5t32 -52.5v-983q0 -236 -128 -346t-340 -110t-340 110t-128 346zM381 1869q0 36 20.5 62.5t38 26.5t33.5 -4 l254 -129q31 -16 31 -50t-20.5 -60.5t-42 -26.5t-33.5 6l-248 125q-33 14 -33 50z" />
<glyph unicode="&#xda;" horiz-adv-x="1193" d="M129 444v983q0 35 32 52.5t77 17.5t76.5 -17.5t31.5 -52.5v-983q0 -133 65.5 -198.5t184.5 -65.5q252 0 252 264v983q0 35 31.5 52.5t76.5 17.5t77 -17.5t32 -52.5v-983q0 -236 -128 -346t-340 -110t-340 110t-128 346zM442 1775q0 34 31 50l254 129q16 4 34 4t38 -26.5 t20 -62.5t-33 -50l-247 -125q-12 -6 -33 -6t-42.5 26.5t-21.5 60.5z" />
<glyph unicode="&#xdb;" horiz-adv-x="1193" d="M129 444v983q0 35 32 52.5t77 17.5t76.5 -17.5t31.5 -52.5v-983q0 -133 65.5 -198.5t184.5 -65.5q252 0 252 264v983q0 35 31.5 52.5t76.5 17.5t77 -17.5t32 -52.5v-983q0 -236 -128 -346t-340 -110t-340 110t-128 346zM303 1776q0 36 37 57l213 115q20 10 36.5 10 t33.5 -10l213 -113q39 -25 38.5 -60t-15.5 -56t-38 -21l-20 6l-213 115l-213 -115q-10 -6 -26 -6t-31 21t-15 57z" />
<glyph unicode="&#xdc;" horiz-adv-x="1193" d="M129 444v983q0 35 32 52.5t77 17.5t76.5 -17.5t31.5 -52.5v-983q0 -133 65.5 -198.5t184.5 -65.5q252 0 252 264v983q0 35 31.5 52.5t76.5 17.5t77 -17.5t32 -52.5v-983q0 -236 -128 -346t-340 -110t-340 110t-128 346zM360 1796q0 39 28 66.5t67 27.5t64.5 -27.5 t25.5 -66.5t-26.5 -67.5t-64.5 -28.5t-66 28.5t-28 67.5zM647 1796q0 39 26.5 66.5t65.5 27.5t65.5 -27.5t26.5 -66.5t-26.5 -67.5t-65.5 -28.5t-65.5 28.5t-26.5 67.5z" />
<glyph unicode="&#xdd;" horiz-adv-x="1142" d="M27 1407q0 37 45 63.5t91 26.5t73 -49l337 -649l336 649q25 49 72 49t91 -26.5t44 -54t-6 -40.5l-424 -764q-4 -12 -4 -22v-518q0 -33 -33 -52.5t-77 -19.5t-75.5 19.5t-31.5 52.5v518q0 4 -6 22l-424 764q-8 17 -8 31zM408 1775q0 34 30 50l254 129q16 4 34 4t38 -26.5 t20 -62.5t-32 -50l-248 -125q-12 -6 -33 -6t-42 26.5t-21 60.5z" />
<glyph unicode="&#xde;" horiz-adv-x="1046" d="M135 72v1376q0 31 30 50.5t77 19.5t77.5 -19.5t30.5 -52.5v-330q37 68 107.5 112t165.5 44q150 0 255 -106.5t105 -268.5v-248q0 -158 -106.5 -268.5t-243.5 -110.5q-92 0 -172 47.5t-111 114.5v-360q0 -27 -31.5 -49.5t-76.5 -22.5t-76 22.5t-31 49.5zM350 635 q0 -57 63.5 -114.5t147.5 -57.5t145.5 52t61.5 134v248q0 80 -61.5 132t-146.5 52t-147.5 -51t-62.5 -133v-262z" />
<glyph unicode="&#xdf;" horiz-adv-x="1189" d="M8 890q0 34 15.5 57.5t44.5 23.5h127v203q0 174 93 286.5t274 112.5t286.5 -95.5t105.5 -279.5q0 -111 -37.5 -205t-103.5 -127q117 -23 214 -139.5t97 -273.5v-31q0 -219 -122.5 -341t-299.5 -122q-209 0 -208 111q0 37 15 69.5t40 32.5q8 0 55 -15.5t92 -15.5 q102 0 160.5 69t58.5 196v30q0 133 -70.5 214t-201.5 104q-41 6 -58.5 23.5t-17.5 56.5t11.5 56t23.5 22.5t43 11.5q129 18 129 223q0 236 -186 235q-178 0 -178 -208v-1104q0 -31 -33 -50.5t-78 -19.5t-74.5 19.5t-29.5 50.5v741h-127q-29 0 -44.5 22.5t-15.5 56.5z" />
<glyph unicode="&#xe0;" horiz-adv-x="942" d="M51 254q0 164 123 228.5t356 64.5h91v37q0 90 -50.5 155.5t-145.5 65.5t-161.5 -31t-73.5 -31q-35 0 -56 34t-21 75q0 53 99 92t210 39q211 0 312.5 -113.5t101.5 -283.5v-514q0 -29 -30 -50.5t-73 -21.5t-71.5 21.5t-28.5 50.5v71q-137 -160 -309 -159q-119 0 -196 69.5 t-77 200.5zM260 1363q0 36 20.5 62.5t38 26.5t33.5 -4l254 -129q31 -16 31 -50t-20.5 -60.5t-42 -26.5t-33.5 6l-248 125q-33 14 -33 50zM268 278.5q0 -63.5 37 -97.5t105.5 -34t139.5 66t71 139v76h-52q-92 0 -150.5 -8t-104.5 -43t-46 -98.5z" />
<glyph unicode="&#xe1;" horiz-adv-x="942" d="M51 254q0 164 123 228.5t356 64.5h91v37q0 90 -50.5 155.5t-145.5 65.5t-161.5 -31t-73.5 -31q-35 0 -56 34t-21 75q0 53 99 92t210 39q211 0 312.5 -113.5t101.5 -283.5v-514q0 -29 -30 -50.5t-73 -21.5t-71.5 21.5t-28.5 50.5v71q-137 -160 -309 -159q-119 0 -196 69.5 t-77 200.5zM268 278.5q0 -63.5 37 -97.5t105.5 -34t139.5 66t71 139v76h-52q-92 0 -150.5 -8t-104.5 -43t-46 -98.5zM285 1269q0 34 30 50l254 129q16 4 34 4t38.5 -26.5t20.5 -62.5t-33 -50l-248 -125q-12 -6 -33 -6t-42 26.5t-21 60.5z" />
<glyph unicode="&#xe2;" horiz-adv-x="942" d="M51 254q0 164 123 228.5t356 64.5h91v37q0 90 -50.5 155.5t-145.5 65.5t-161.5 -31t-73.5 -31q-35 0 -56 34t-21 75q0 53 99 92t210 39q211 0 312.5 -113.5t101.5 -283.5v-514q0 -29 -30 -50.5t-73 -21.5t-71.5 21.5t-28.5 50.5v71q-137 -160 -309 -159q-119 0 -196 69.5 t-77 200.5zM156 1271q0 36 37 56l213 115q20 10 36 10t33 -10l213 -113q39 -25 39 -59.5t-15.5 -56t-37.5 -21.5l-21 6l-213 115l-213 -115q-10 -6 -25.5 -6t-30.5 21.5t-15 57.5zM268 278.5q0 -63.5 37 -97.5t105.5 -34t139.5 66t71 139v76h-52q-92 0 -150.5 -8t-104.5 -43 t-46 -98.5z" />
<glyph unicode="&#xe3;" horiz-adv-x="942" d="M51 254q0 164 123 228.5t356 64.5h91v37q0 90 -50.5 155.5t-145.5 65.5t-161.5 -31t-73.5 -31q-35 0 -56 34t-21 75q0 53 99 92t210 39q211 0 312.5 -113.5t101.5 -283.5v-514q0 -29 -30 -50.5t-73 -21.5t-71.5 21.5t-28.5 50.5v71q-137 -160 -309 -159q-119 0 -196 69.5 t-77 200.5zM111 1303q0 70 59 100.5t117.5 30.5t143.5 -32t137 -32t99.5 25.5t69 25.5t35.5 -24.5t14 -44.5q0 -74 -57 -102.5t-120 -28.5t-146.5 31.5t-133.5 31.5t-98.5 -27.5t-70 -27.5t-35.5 25.5t-14 48.5zM268 278.5q0 -63.5 37 -97.5t105.5 -34t139.5 66t71 139v76 h-52q-92 0 -150.5 -8t-104.5 -43t-46 -98.5z" />
<glyph unicode="&#xe4;" horiz-adv-x="942" d="M51 254q0 164 123 228.5t356 64.5h91v37q0 90 -50.5 155.5t-145.5 65.5t-161.5 -31t-73.5 -31q-35 0 -56 34t-21 75q0 53 99 92t210 39q211 0 312.5 -113.5t101.5 -283.5v-514q0 -29 -30 -50.5t-73 -21.5t-71.5 21.5t-28.5 50.5v71q-137 -160 -309 -159q-119 0 -196 69.5 t-77 200.5zM211 1290q0 39 27.5 66.5t66.5 27.5t64.5 -27.5t25.5 -66.5t-26.5 -67.5t-64.5 -28.5t-65.5 28.5t-27.5 67.5zM268 278.5q0 -63.5 37 -97.5t105.5 -34t139.5 66t71 139v76h-52q-92 0 -150.5 -8t-104.5 -43t-46 -98.5zM498 1290q0 39 26.5 66.5t65.5 27.5 t65.5 -27.5t26.5 -66.5t-26.5 -67.5t-65.5 -28.5t-65.5 28.5t-26.5 67.5z" />
<glyph unicode="&#xe5;" horiz-adv-x="942" d="M51 254q0 164 123 228.5t356 64.5h91v37q0 90 -50.5 155.5t-145.5 65.5t-161.5 -31t-73.5 -31q-35 0 -56 34t-21 75q0 53 99 92t210 39q211 0 312.5 -113.5t101.5 -283.5v-514q0 -29 -30 -50.5t-73 -21.5t-71.5 21.5t-28.5 50.5v71q-137 -160 -309 -159q-119 0 -196 69.5 t-77 200.5zM254 1375q0 79 57.5 139.5t136.5 60.5t139 -60.5t60 -139.5t-60.5 -140t-139 -61t-136 61t-57.5 140zM268 278.5q0 -63.5 37 -97.5t105.5 -34t139.5 66t71 139v76h-52q-92 0 -150.5 -8t-104.5 -43t-46 -98.5zM344 1373q0 -40 32 -74.5t74 -34.5t72.5 33.5 t30.5 74.5t-30.5 73t-72.5 32t-74 -32t-32 -72z" />
<glyph unicode="&#xe6;" horiz-adv-x="1515" d="M51 254q0 164 122 228.5t355 64.5h90v37q0 92 -49 157.5t-145 65.5t-162.5 -32t-75.5 -32q-33 0 -54 35t-21 76q0 51 99 91t210 40q215 0 317 -172q121 170 297.5 170t298 -104.5t121.5 -286.5q0 -102 -44 -133t-142 -31h-430v-47q0 -102 72.5 -162.5t172 -60.5t176 39 t102.5 39t50.5 -32t24.5 -65q0 -55 -106.5 -105t-235.5 -50q-260 0 -383 200q-68 -96 -163 -148t-209 -52t-201 69.5t-87 200.5zM268 279q0 -63 37 -97.5t106.5 -34.5t138 66t68.5 139v76h-51q-143 0 -221 -29.5t-78 -119.5zM838 561h338q45 0 60 12.5t15 47.5q0 84 -59 141 t-146.5 57t-147.5 -54t-60 -136v-68z" />
<glyph unicode="&#xe7;" horiz-adv-x="870" d="M78 391v184q0 182 106.5 295t317.5 113q133 0 223 -46t90 -103q0 -35 -25.5 -70t-60.5 -35q-10 0 -72.5 32t-138.5 32q-225 0 -225 -218v-184q0 -217 227 -217q78 0 140.5 34t74.5 34q41 0 66.5 -33t25.5 -77t-79.5 -91t-198.5 -55l-27 -99q98 -2 148.5 -46t50.5 -108.5 t-50 -117.5t-153 -53q-57 0 -112.5 15t-55.5 42q0 16 11.5 41t29.5 25q4 0 41 -14.5t76 -14.5q102 0 102 74q0 68 -110 77l-99 11l45 168q-184 14 -276 123.5t-92 281.5z" />
<glyph unicode="&#xe8;" horiz-adv-x="970" d="M76 391v195q0 162 125 279.5t297 117.5t291.5 -107.5t119.5 -271.5q0 -123 -59 -152q-47 -24 -127 -24h-432v-47q0 -102 73.5 -162.5t175 -60.5t176.5 39t100.5 39t50 -33t24.5 -64q0 -51 -98.5 -103t-241.5 -52q-209 0 -342 112.5t-133 294.5zM291 561h340 q45 0 60.5 12.5t15.5 49.5q0 82 -59.5 139t-146.5 57t-148.5 -54t-61.5 -138v-66zM291 1363q0 36 20.5 62.5t37.5 26.5t34 -4l254 -129q31 -16 31 -50t-20.5 -60.5t-42 -26.5t-34.5 6l-247 125q-33 14 -33 50z" />
<glyph unicode="&#xe9;" horiz-adv-x="970" d="M76 391v195q0 162 125 279.5t297 117.5t291.5 -107.5t119.5 -271.5q0 -123 -59 -152q-47 -24 -127 -24h-432v-47q0 -102 73.5 -162.5t175 -60.5t176.5 39t100.5 39t50 -33t24.5 -64q0 -51 -98.5 -103t-241.5 -52q-209 0 -342 112.5t-133 294.5zM291 561h340 q45 0 60.5 12.5t15.5 49.5q0 82 -59.5 139t-146.5 57t-148.5 -54t-61.5 -138v-66zM315 1269q0 34 31 50l254 129q16 4 34 4t38 -26.5t20 -62.5t-33 -50l-247 -125q-12 -6 -33 -6t-42.5 26.5t-21.5 60.5z" />
<glyph unicode="&#xea;" horiz-adv-x="970" d="M76 391v195q0 162 125 279.5t297 117.5t291.5 -107.5t119.5 -271.5q0 -123 -59 -152q-47 -24 -127 -24h-432v-47q0 -102 73.5 -162.5t175 -60.5t176.5 39t100.5 39t50 -33t24.5 -64q0 -51 -98.5 -103t-241.5 -52q-209 0 -342 112.5t-133 294.5zM213 1271q0 36 37 56 l213 115q20 10 36.5 10t32.5 -10l213 -113q39 -25 39 -59.5t-15 -56t-38 -21.5l-20 6l-213 115l-213 -115q-10 -6 -26 -6t-31 21.5t-15 57.5zM291 561h340q45 0 60.5 12.5t15.5 49.5q0 82 -59.5 139t-146.5 57t-148.5 -54t-61.5 -138v-66z" />
<glyph unicode="&#xeb;" horiz-adv-x="970" d="M76 391v195q0 162 125 279.5t297 117.5t291.5 -107.5t119.5 -271.5q0 -123 -59 -152q-47 -24 -127 -24h-432v-47q0 -102 73.5 -162.5t175 -60.5t176.5 39t100.5 39t50 -33t24.5 -64q0 -51 -98.5 -103t-241.5 -52q-209 0 -342 112.5t-133 294.5zM262 1290q0 39 27.5 66.5 t66.5 27.5t64.5 -27.5t25.5 -66.5t-26.5 -67.5t-64.5 -28.5t-65.5 28.5t-27.5 67.5zM291 561h340q45 0 60.5 12.5t15.5 49.5q0 82 -59.5 139t-146.5 57t-148.5 -54t-61.5 -138v-66zM549 1290q0 39 26.5 66.5t65.5 27.5t65.5 -27.5t26.5 -66.5t-26.5 -67.5t-65.5 -28.5 t-65.5 28.5t-26.5 67.5z" />
<glyph unicode="&#xec;" horiz-adv-x="440" d="M8 1363q0 36 20.5 62.5t38 26.5t33.5 -4l254 -129q31 -16 31 -50t-20.5 -60.5t-42 -26.5t-33.5 6l-248 125q-33 14 -33 50zM113 72v829q0 31 29.5 50.5t76.5 19.5t78 -19.5t31 -50.5v-829q0 -27 -32 -49.5t-77 -22.5t-75.5 22.5t-30.5 49.5z" />
<glyph unicode="&#xed;" horiz-adv-x="440" d="M57 1269q0 34 31 50l254 129q16 4 34 4t38 -26.5t20 -62.5t-33 -50l-247 -125q-12 -6 -33 -6t-42.5 26.5t-21.5 60.5zM113 72v829q0 31 29.5 50.5t76.5 19.5t78 -19.5t31 -50.5v-829q0 -27 -32 -49.5t-77 -22.5t-75.5 22.5t-30.5 49.5z" />
<glyph unicode="&#xee;" horiz-adv-x="440" d="M-63 1271q0 36 36 56l213 115q20 10 36.5 10t33.5 -10l213 -113q39 -25 39 -59.5t-15.5 -56t-37.5 -21.5l-21 6l-213 115l-213 -115q-8 -6 -24.5 -6t-31.5 21.5t-15 57.5zM113 72v829q0 31 29.5 50.5t76.5 19.5t78 -19.5t31 -50.5v-829q0 -27 -32 -49.5t-77 -22.5 t-75.5 22.5t-30.5 49.5z" />
<glyph unicode="&#xef;" horiz-adv-x="440" d="M-10 1290q0 39 27.5 66.5t66.5 27.5t64.5 -27.5t25.5 -66.5t-26.5 -67.5t-64.5 -28.5t-65.5 28.5t-27.5 67.5zM113 72v829q0 31 29.5 50.5t76.5 19.5t78 -19.5t31 -50.5v-829q0 -27 -32 -49.5t-77 -22.5t-75.5 22.5t-30.5 49.5zM276 1290q0 39 27 66.5t66 27.5 t65.5 -27.5t26.5 -66.5t-26.5 -67.5t-65.5 -28.5t-66 28.5t-27 67.5z" />
<glyph unicode="&#xf0;" horiz-adv-x="1028" d="M76 391v189q0 166 106.5 284.5t255.5 118.5q90 0 167 -46t106 -118q-12 207 -113 365l-131 -78q-10 -8 -32 -8t-46 29.5t-24 60.5t26 45l117 70q-55 59 -127 65q-47 31 -47 73t26.5 75.5t83.5 33.5q133 0 250 -135l127 74q12 6 33 6t45.5 -27.5t24.5 -56.5t-27 -49 l-121 -72q150 -256 150 -569v-330q0 -162 -127 -284.5t-298 -122.5t-298 122.5t-127 284.5zM291 391q0 -84 62.5 -150.5t147.5 -66.5t147.5 66.5t62.5 150.5v193q0 86 -64.5 147.5t-149.5 61.5t-145.5 -65.5t-60.5 -147.5v-189z" />
<glyph unicode="&#xf1;" horiz-adv-x="1050" d="M113 72v829q0 31 29.5 50.5t73.5 19.5t71.5 -19.5t27.5 -50.5v-74q33 66 106 111t169 45q145 0 250.5 -119t105.5 -284v-508q0 -33 -31.5 -52.5t-74.5 -19.5t-76 19.5t-33 52.5v508q0 82 -61.5 147.5t-142.5 65.5t-140 -58.5t-59 -154.5v-508q0 -27 -33 -49.5t-77 -22.5 t-74.5 22.5t-30.5 49.5zM184 1303q0 70 59.5 100.5t117.5 30.5t143.5 -32t137.5 -32t99 25.5t69 25.5t36 -24.5t14 -44.5q0 -74 -57.5 -102.5t-120 -28.5t-146 31.5t-134 31.5t-98.5 -27.5t-69.5 -27.5t-36 25.5t-14.5 48.5z" />
<glyph unicode="&#xf2;" horiz-adv-x="997" d="M74 391v189q0 162 125 282.5t297 120.5t299 -120t127 -283v-189q0 -160 -128 -283.5t-297 -123.5t-296 122.5t-127 284.5zM289 391q0 -84 61.5 -150.5t146.5 -66.5t147.5 66.5t62.5 150.5v189q0 82 -62.5 147.5t-147.5 65.5t-146.5 -65.5t-61.5 -147.5v-189zM291 1363 q0 36 20.5 62.5t37.5 26.5t34 -4l254 -129q31 -16 31 -50t-20.5 -60.5t-42 -26.5t-34.5 6l-247 125q-33 14 -33 50z" />
<glyph unicode="&#xf3;" horiz-adv-x="997" d="M74 391v189q0 162 125 282.5t297 120.5t299 -120t127 -283v-189q0 -160 -128 -283.5t-297 -123.5t-296 122.5t-127 284.5zM289 391q0 -84 61.5 -150.5t146.5 -66.5t147.5 66.5t62.5 150.5v189q0 82 -62.5 147.5t-147.5 65.5t-146.5 -65.5t-61.5 -147.5v-189zM313 1269 q0 34 31 50l254 129q16 4 34 4t38 -26.5t20 -62.5t-33 -50l-247 -125q-12 -6 -33 -6t-42.5 26.5t-21.5 60.5z" />
<glyph unicode="&#xf4;" horiz-adv-x="997" d="M74 391v189q0 162 125 282.5t297 120.5t299 -120t127 -283v-189q0 -160 -128 -283.5t-297 -123.5t-296 122.5t-127 284.5zM211 1271q0 36 37 56l213 115q20 10 36.5 10t32.5 -10l213 -113q39 -25 39 -59.5t-15 -56t-38 -21.5l-20 6l-213 115l-213 -115q-8 -6 -25 -6 t-32 21.5t-15 57.5zM289 391q0 -84 61.5 -150.5t146.5 -66.5t147.5 66.5t62.5 150.5v189q0 82 -62.5 147.5t-147.5 65.5t-146.5 -65.5t-61.5 -147.5v-189z" />
<glyph unicode="&#xf5;" horiz-adv-x="997" d="M74 391v189q0 162 125 282.5t297 120.5t299 -120t127 -283v-189q0 -160 -128 -283.5t-297 -123.5t-296 122.5t-127 284.5zM162 1303q0 70 59.5 100.5t117.5 30.5t143 -32t137.5 -32t99.5 25.5t68.5 25.5t36 -24.5t14.5 -44.5q0 -74 -57.5 -102.5t-120 -28.5t-146.5 31.5 t-134 31.5t-98.5 -27.5t-70 -27.5t-35.5 25.5t-14 48.5zM289 391q0 -84 61.5 -150.5t146.5 -66.5t147.5 66.5t62.5 150.5v189q0 82 -62.5 147.5t-147.5 65.5t-146.5 -65.5t-61.5 -147.5v-189z" />
<glyph unicode="&#xf6;" horiz-adv-x="997" d="M74 391v189q0 162 125 282.5t297 120.5t299 -120t127 -283v-189q0 -160 -128 -283.5t-297 -123.5t-296 122.5t-127 284.5zM262 1290q0 39 27.5 66.5t66.5 27.5t64.5 -27.5t25.5 -66.5t-26.5 -67.5t-64.5 -28.5t-65.5 28.5t-27.5 67.5zM289 391q0 -84 61.5 -150.5 t146.5 -66.5t147.5 66.5t62.5 150.5v189q0 82 -62.5 147.5t-147.5 65.5t-146.5 -65.5t-61.5 -147.5v-189zM549 1290q0 39 26.5 66.5t65.5 27.5t65.5 -27.5t26.5 -66.5t-26.5 -67.5t-65.5 -28.5t-65.5 28.5t-26.5 67.5z" />
<glyph unicode="&#xf7;" horiz-adv-x="913" d="M57 488q0 38 20.5 62.5t53.5 24.5h651q29 0 51.5 -25.5t22.5 -61.5t-22.5 -60.5t-51.5 -24.5h-651q-33 0 -53.5 23.5t-20.5 61.5zM334 148q0 46 34.5 78t81 32t81 -31.5t34.5 -78t-35.5 -80t-80.5 -33.5t-80 33.5t-35 79.5zM334 833q0 46 34.5 79.5t80 33.5t81 -33.5 t35.5 -79.5t-34.5 -79t-80.5 -33t-81 33t-35 79z" />
<glyph unicode="&#xf8;" horiz-adv-x="997" d="M74 391v189q0 162 125 282.5t299 120.5q115 0 219 -61l65 100q14 23 37 22.5t39 -16.5t16 -32.5t-12 -41.5l-63 -96q123 -117 123 -278v-189q0 -160 -128 -283.5t-296 -123.5q-127 0 -232 69l-65 -100q-12 -18 -32.5 -18.5t-37 14t-16.5 32t10 31.5l65 103 q-116 120 -116 276zM289 391q0 -53 20 -94l299 459q-53 37 -124.5 37t-133 -65.5t-61.5 -147.5v-189zM375 217q55 -43 131 -43t138.5 66.5t62.5 150.5v189q0 49 -27 98z" />
<glyph unicode="&#xf9;" horiz-adv-x="1054" d="M104 387v512q0 29 33 50.5t76 21.5t74.5 -21.5t31.5 -50.5v-512q0 -82 62.5 -147.5t147.5 -65.5t146.5 64.5t61.5 148.5v514q0 29 32 49.5t77 20.5t74.5 -20.5t29.5 -49.5v-514q0 -162 -125 -282.5t-297 -120.5t-298 120.5t-126 282.5zM319 1363q0 36 20.5 62.5t38 26.5 t34.5 -4l254 -129q31 -16 30.5 -50t-21 -60.5t-41.5 -26.5t-34 6l-248 125q-33 14 -33 50z" />
<glyph unicode="&#xfa;" horiz-adv-x="1054" d="M104 387v512q0 29 33 50.5t76 21.5t74.5 -21.5t31.5 -50.5v-512q0 -82 62.5 -147.5t147.5 -65.5t146.5 64.5t61.5 148.5v514q0 29 32 49.5t77 20.5t74.5 -20.5t29.5 -49.5v-514q0 -162 -125 -282.5t-297 -120.5t-298 120.5t-126 282.5zM356 1269q0 34 31 50l254 129 q16 4 34 4t38 -26.5t20 -62.5t-33 -50l-247 -125q-12 -6 -33 -6t-42.5 26.5t-21.5 60.5z" />
<glyph unicode="&#xfb;" horiz-adv-x="1054" d="M104 387v512q0 29 33 50.5t76 21.5t74.5 -21.5t31.5 -50.5v-512q0 -82 62.5 -147.5t147.5 -65.5t146.5 64.5t61.5 148.5v514q0 29 32 49.5t77 20.5t74.5 -20.5t29.5 -49.5v-514q0 -162 -125 -282.5t-297 -120.5t-298 120.5t-126 282.5zM244 1271q0 36 37 56l213 115 q20 10 36 10t33 -10l213 -113q39 -25 39 -59.5t-15.5 -56t-37.5 -21.5l-21 6l-213 115l-213 -115q-8 -6 -24.5 -6t-31.5 21.5t-15 57.5z" />
<glyph unicode="&#xfc;" horiz-adv-x="1054" d="M104 387v512q0 29 33 50.5t76 21.5t74.5 -21.5t31.5 -50.5v-512q0 -82 62.5 -147.5t147.5 -65.5t146.5 64.5t61.5 148.5v514q0 29 32 49.5t77 20.5t74.5 -20.5t29.5 -49.5v-514q0 -162 -125 -282.5t-297 -120.5t-298 120.5t-126 282.5zM293 1290q0 39 27.5 66.5 t66.5 27.5t64.5 -27.5t25.5 -66.5t-26.5 -67.5t-64.5 -28.5t-65.5 28.5t-27.5 67.5zM580 1290q0 39 26.5 66.5t65.5 27.5t65.5 -27.5t26.5 -66.5t-26.5 -67.5t-65.5 -28.5t-65.5 28.5t-26.5 67.5z" />
<glyph unicode="&#xfd;" horiz-adv-x="935" d="M20 -368.5q0 92.5 60 92.5q92 0 182 88t111 247l-344 795q-8 10 -8.5 39t47 60.5t96.5 31.5t63 -39l258 -665l222 665q18 39 61 39t93 -31.5t50 -74.5q0 -18 -4 -25l-338 -893q-56 -136 -82 -178l-49 -76q-31 -47 -61.5 -70.5t-69.5 -48.5q-74 -49 -180.5 -49 t-106.5 92.5zM338 1269q0 34 31 50l254 129q16 4 33.5 4t38 -26.5t20.5 -62.5t-33 -50l-248 -125q-12 -6 -32.5 -6t-42 26.5t-21.5 60.5z" />
<glyph unicode="&#xfe;" horiz-adv-x="1036" d="M115 -389v1868q0 31 29.5 50t74.5 19t78 -19.5t33 -49.5v-652q35 66 104.5 111t157.5 45q154 0 261.5 -119t107.5 -284v-189q0 -160 -109 -283.5t-252 -123.5q-88 0 -163 47t-107 112v-532q0 -29 -33 -50.5t-78 -21.5t-74.5 21.5t-29.5 50.5zM330 344q0 -45 62.5 -107.5 t144 -62.5t145 66.5t63.5 150.5v189q0 82 -63.5 147.5t-146.5 65.5t-144 -58.5t-61 -154.5v-236z" />
<glyph unicode="&#xff;" horiz-adv-x="935" d="M20 -368.5q0 92.5 60 92.5q92 0 182 88t111 247l-344 795q-8 10 -8.5 39t47 60.5t96.5 31.5t63 -39l258 -665l222 665q18 39 61 39t93 -31.5t50 -74.5q0 -18 -4 -25l-338 -893q-56 -136 -82 -178l-49 -76q-31 -47 -61.5 -70.5t-69.5 -48.5q-74 -49 -180.5 -49 t-106.5 92.5zM248 1290q0 39 27.5 66.5t66.5 27.5t64.5 -27.5t25.5 -66.5t-26.5 -67.5t-64.5 -28.5t-65.5 28.5t-27.5 67.5zM535 1290q0 39 26.5 66.5t65.5 27.5t65.5 -27.5t26.5 -66.5t-26.5 -67.5t-65.5 -28.5t-65.5 28.5t-26.5 67.5z" />
<glyph unicode="&#x152;" horiz-adv-x="1710" d="M123 444v596q0 238 113.5 347.5t308.5 109.5q96 0 179 -38t128 -111v77q0 33 28.5 52.5t67.5 19.5h654q35 0 52 -27.5t17 -67.5t-18.5 -68.5t-50.5 -28.5h-560v-469h267q33 0 51 -26t18 -60.5t-17.5 -60t-51.5 -25.5h-267v-471h560q33 0 51 -29t18 -69t-17.5 -67.5 t-51.5 -27.5h-654q-39 0 -67.5 19.5t-28.5 52.5v65q-45 -74 -128 -111.5t-179 -37.5q-195 0 -308.5 109t-113.5 347zM340 444q0 -264 242 -264q117 0 180 65.5t63 198.5v596q0 133 -63.5 199t-179.5 66q-242 0 -242 -265v-596z" />
<glyph unicode="&#x153;" horiz-adv-x="1601" d="M74 391v189q0 162 125 282.5t299 120.5q96 0 182 -47t141 -127q55 80 137 127t175 47q166 0 286.5 -108.5t120.5 -270.5q0 -122 -60 -152q-46 -24 -126 -24h-432v-47q0 -102 73.5 -162.5t175 -60.5t174 39t99.5 39t51.5 -32t24.5 -67q0 -51 -99.5 -102t-240.5 -51 q-238 0 -359 174q-57 -80 -142 -127t-181 -47q-170 0 -297 122.5t-127 284.5zM289 391q0 -84 61.5 -150.5t146.5 -66.5t147.5 66.5t62.5 150.5v189q0 82 -62.5 147.5t-147.5 65.5t-146.5 -65.5t-61.5 -147.5v-189zM922 561h340q43 0 59 12.5t16 49.5q0 82 -60 139t-146.5 57 t-147.5 -53t-61 -135v-70z" />
<glyph unicode="&#x178;" horiz-adv-x="1142" d="M27 1407q0 37 45 63.5t91 26.5t73 -49l337 -649l336 649q25 49 72 49t91 -26.5t44 -54t-6 -40.5l-424 -764q-4 -12 -4 -22v-518q0 -33 -33 -52.5t-77 -19.5t-75.5 19.5t-31.5 52.5v518q0 4 -6 22l-424 764q-8 17 -8 31zM338 1796q0 39 27.5 66.5t66.5 27.5t64.5 -27.5 t25.5 -66.5t-26.5 -67.5t-64.5 -28.5t-65.5 28.5t-27.5 67.5zM625 1796q0 39 26.5 66.5t65.5 27.5t65.5 -27.5t26.5 -66.5t-26.5 -67.5t-65.5 -28.5t-65.5 28.5t-26.5 67.5z" />
<glyph unicode="&#x2c6;" horiz-adv-x="571" d="M0 1271q0 36 37 56l213 115q20 10 36.5 10t32.5 -10l213 -113q39 -25 39 -59.5t-15 -56t-38 -21.5l-20 6l-213 115l-213 -115q-10 -6 -26 -6t-31 21.5t-15 57.5z" />
<glyph unicode="&#x2dc;" horiz-adv-x="675" d="M0 1303q0 70 59.5 100.5t117.5 30.5t143.5 -32t137.5 -32t99 25.5t68.5 25.5t36 -24.5t14.5 -44.5q0 -74 -57.5 -102.5t-120 -28.5t-146.5 31.5t-134 31.5t-98 -27.5t-70 -27.5t-36 25.5t-14 48.5z" />
<glyph unicode="&#x2000;" horiz-adv-x="1040" />
<glyph unicode="&#x2001;" horiz-adv-x="2081" />
<glyph unicode="&#x2002;" horiz-adv-x="1040" />
<glyph unicode="&#x2003;" horiz-adv-x="2081" />
<glyph unicode="&#x2004;" horiz-adv-x="693" />
<glyph unicode="&#x2005;" horiz-adv-x="520" />
<glyph unicode="&#x2006;" horiz-adv-x="346" />
<glyph unicode="&#x2007;" horiz-adv-x="346" />
<glyph unicode="&#x2008;" horiz-adv-x="260" />
<glyph unicode="&#x2009;" horiz-adv-x="416" />
<glyph unicode="&#x200a;" horiz-adv-x="115" />
<glyph unicode="&#x2010;" horiz-adv-x="843" d="M84 491.5q0 38.5 19.5 65.5t50.5 27h532q29 0 51.5 -28t22.5 -65.5t-22.5 -63.5t-51.5 -26h-532q-31 0 -50.5 26t-19.5 64.5z" />
<glyph unicode="&#x2011;" horiz-adv-x="843" d="M84 491.5q0 38.5 19.5 65.5t50.5 27h532q29 0 51.5 -28t22.5 -65.5t-22.5 -63.5t-51.5 -26h-532q-31 0 -50.5 26t-19.5 64.5z" />
<glyph unicode="&#x2012;" horiz-adv-x="843" d="M84 491.5q0 38.5 19.5 65.5t50.5 27h532q29 0 51.5 -28t22.5 -65.5t-22.5 -63.5t-51.5 -26h-532q-31 0 -50.5 26t-19.5 64.5z" />
<glyph unicode="&#x2013;" horiz-adv-x="966" d="M84 491.5q0 38.5 19.5 65.5t50.5 27h655q29 0 51.5 -28t22.5 -65.5t-22.5 -63.5t-51.5 -26h-655q-31 0 -50.5 26t-19.5 64.5z" />
<glyph unicode="&#x2014;" horiz-adv-x="1540" d="M84 491.5q0 38.5 19.5 65.5t50.5 27h1230q29 0 50.5 -28t21.5 -65.5t-21.5 -63.5t-50.5 -26h-1230q-31 0 -50.5 26t-19.5 64.5z" />
<glyph unicode="&#x2018;" horiz-adv-x="360" d="M53 1209q0 46 103 278q10 31 42 31t55 -16.5t23 -34t-6 -33.5l-45 -109q72 -31 72 -111q0 -51 -36 -86.5t-86 -35.5t-86 35.5t-36 81.5z" />
<glyph unicode="&#x2019;" horiz-adv-x="356" d="M66 1395q0 51 34.5 87t84.5 36t86 -36t36 -84t-102 -276q-10 -31 -42 -30.5t-55.5 16.5t-23.5 35.5t6 32.5l45 108q-69 35 -69 111z" />
<glyph unicode="&#x201a;" horiz-adv-x="378" d="M68 111q0 51 34.5 86.5t86 35.5t87 -35.5t35.5 -81.5t-102 -278q-14 -31 -44 -31t-53.5 16.5t-23.5 38t4 29.5l45 109q-69 31 -69 111z" />
<glyph unicode="&#x201c;" horiz-adv-x="712" d="M53 1209q0 46 103 278q14 31 44 31t53 -16.5t23 -34t-6 -33.5l-45 -109q72 -31 72 -111q0 -51 -36 -86.5t-86 -35.5t-86 35.5t-36 81.5zM406 1209q0 46 102 278q14 31 44 31t53.5 -16.5t23.5 -37t-4 -30.5l-45 -109q70 -31 69 -111q0 -51 -34.5 -86.5t-86 -35.5t-87 35.5 t-35.5 81.5z" />
<glyph unicode="&#x201d;" horiz-adv-x="712" d="M66 1395q0 51 35.5 87t85.5 36t86 -36t36 -82t-102 -278q-14 -31 -44 -30.5t-53.5 16.5t-23.5 35.5t6 32.5l45 108q-71 35 -71 111zM420 1395q0 51 34.5 87t86 36t87.5 -36t36 -82t-103 -278q-14 -31 -44 -30.5t-53.5 16.5t-23.5 37.5t4 30.5l45 108q-69 35 -69 111z" />
<glyph unicode="&#x201e;" horiz-adv-x="731" d="M68 111q0 51 34.5 86.5t86 35.5t87 -35.5t35.5 -81.5t-102 -278q-14 -31 -44 -31t-53.5 16.5t-23.5 38t4 29.5l45 109q-69 31 -69 111zM420 111q0 51 36 86.5t86 35.5t86 -35.5t36 -81.5t-103 -278q-14 -31 -44 -31t-53.5 16.5t-23.5 43.5q0 12 6 24l46 109 q-72 31 -72 111z" />
<glyph unicode="&#x2022;" horiz-adv-x="657" d="M78 614.5q0 96.5 75.5 168t176 71.5t174.5 -71.5t74 -168t-74 -169t-174.5 -72.5t-176 72.5t-75.5 169z" />
<glyph unicode="&#x2026;" horiz-adv-x="1146" d="M68 110.5q0 51.5 34.5 87t85.5 35.5t87 -35.5t36 -85.5t-35.5 -87t-87 -37t-86 35.5t-34.5 87zM455 110.5q0 51.5 34.5 87t86 35.5t87 -35.5t35.5 -85.5t-35.5 -87t-86.5 -37t-86 35.5t-35 87zM838 110.5q0 51.5 34.5 87t86 35.5t87 -35.5t35.5 -85.5t-35.5 -87 t-86.5 -37t-86 35.5t-35 87z" />
<glyph unicode="&#x202f;" horiz-adv-x="416" />
<glyph unicode="&#x2039;" horiz-adv-x="528" d="M57 567.5q0 20.5 37 83.5l162 303q16 29 65.5 29t89.5 -35t40 -71q0 -12 -7 -25l-151 -285l151 -284q6 -8 6.5 -34t-39.5 -61.5t-90.5 -35.5t-64.5 30l-162 301q-37 64 -37 84.5z" />
<glyph unicode="&#x203a;" horiz-adv-x="528" d="M78 260q0 14 6 23l152 284l-152 285q-6 12 -6 25q0 37 40 71.5t89 34.5t65 -29l162 -303q37 -63 37 -83.5t-37 -84.5l-162 -301q-14 -31 -64 -30.5t-90 36t-40 72.5z" />
<glyph unicode="&#x205f;" horiz-adv-x="520" />
<glyph unicode="&#x20ac;" horiz-adv-x="1228" d="M51 560q0 34 19.5 57.5t50.5 23.5h108v164h-108q-31 0 -50.5 21.5t-19.5 55.5t19.5 57.5t50.5 23.5h108v77q0 236 125 346.5t331 110.5t335 -103.5t129 -275.5q0 -57 -25.5 -78.5t-83.5 -21.5q-109 0 -108 67q0 90 -59.5 155t-182.5 65q-244 0 -244 -265v-77h250 q29 0 51.5 -24t22.5 -56.5t-22.5 -55t-51.5 -22.5h-250v-164h250q29 0 51.5 -23.5t22.5 -56.5t-22.5 -55.5t-51.5 -22.5h-250v-59q0 -98 59.5 -171t183.5 -73t182.5 65.5t60.5 166.5q0 68 108 67q59 0 84 -21.5t25 -80.5q0 -176 -129 -282.5t-339 -106.5t-331 115.5 t-121 320.5v59h-108q-31 0 -50.5 21.5t-19.5 55.5z" />
<glyph unicode="&#x2122;" horiz-adv-x="1341" d="M84 1513.5q0 59.5 39 59.5h428q41 0 41 -59.5t-41 -59.5h-150v-440q0 -18 -18 -30.5t-45 -12.5t-45.5 12t-18.5 31v440h-151q-39 0 -39 59.5zM637 1014v495q0 63 64.5 63.5t97.5 -71.5l129 -280l129 280q18 43 39.5 57.5t58.5 14.5q63 0 64 -64v-495q0 -18 -18.5 -30.5 t-44.5 -12.5t-45 12t-19 31v295l-121 -260q-14 -31 -44 -31t-42 31l-119 268v-303q0 -18 -19.5 -30.5t-45.5 -12.5t-45 12.5t-19 30.5z" />
<glyph unicode="&#xe000;" horiz-adv-x="983" d="M0 0v983h983v-983h-983z" />
</font>
</defs>
</svg>
